Information of news
  • Author: mitsumi
  • Date: 4-07-2021, 10:53
4-07-2021, 10:53

Pavel Tsatsouline - Kettlebells StrongFirst

Category: Tutorials

Pavel Tsatsouline - Kettlebells  StrongFirst


Pavel Tsatsouline - Kettlebells StrongFirst
WEBRip | English | MP4 + PDF Guide | 1920 x 1080 | AVC ~6220 kbps | 29.970 fps
AAC | 317 Kbps | 48.0 KHz | 2 channels | 02:20:29 | 6.43 GB
Genre: eLearning Video / Kettlebell, Sports, Cardio, Health
Your #1 training priority is to get the most mat time. Hence strength and conditioning must take up the least amount of your time, energy, and mental bandwidth.


The kettlebell is the answer. It is the most versatile weapon against weakness. With expert programming, it covers all the bases of strength (dynamic and static), conditioning, and resilience with just a handful of high yield exercises with quick learning curves:

The Swing-for "hips and grips"
The Get-Up-"No-one could hold me down" plus bullet-proof shoulders
The Clean-and-Jerk-the answer to all your power and conditioning questions

We invited the #1 expert, Pavel Tsatsouline who started the kettlebell revolution, and his team to design a program just for you. Kettlebells StrongFirst blends Pavel's expertise in "low-tech/high concept" training for the military with the BJJ knowledge of the black belts at his StrongFirst school of strength.

The result is a "plug-and-play" program that builds "3D" strength and conditioning-while making your carcass more resilient instead of piling on new injuries like many popular "workouts."

A key feature of the program is Russian anti-glycolytic programming-the gold medal alternative to mindless "metcons" and "smokers" that take a lot more out of you than they give.

Kettlebells StrongFirst. Get stronger than the competition while leaving a full tank for rolling.

The Russian kettlebell is the answer to all your strength and conditioning questions-when wielded skillfully and with expert programming by #1 authority Pavel Tsatsouline:

The Swing-for "hips and grips"
The Get-Up-"No-one could hold me down" plus bullet-proof shoulders
The Clean-and-Jerk-for ruthless endurance
Russian AGT programming-the gold medal alternative to mindless "smokers"
Get stronger than the competition while leaving a full tank for the mat

General
Complete name : PavelTsatsoulineVol2.mp4
Format : MPEG-4
Format profile : Base Media / Version 2
Codec ID : mp42 (mp42/mp41)
File size : 1.69 GiB
Duration : 36 min 55 s
Overall bit rate mode : Variable
Overall bit rate : 6 545 kb/s
Encoded date : UTC 2020-12-16 20:55:02
Tagged date : UTC 2020-12-16 20:55:43
TIM : 00;00;00;00
TSC : 30000
TSZ : 1001

Video
ID : 1
Format : AVC
Format/Info : Advanced Video Codec
Format profile : [email protected]
Format settings : CABAC / 3 Ref Frames
Format settings, CABAC : Yes
Format settings, RefFrames : 3 frames
Format settings, GOP : M=1, N=30
Codec ID : avc1
Codec ID/Info : Advanced Video Coding
Duration : 36 min 55 s
Bit rate : 6 220 kb/s
Width : 1 920 pixels
Height : 1 080 pixels
Display aspect ratio : 16:9
Frame rate mode : Constant
Frame rate : 29.970 (30000/1001) FPS
Color space : YUV
Chroma subsampling : 4:2:0
Bit depth : 8 bits
Scan type : Progressive
Bits/(Pixel*Frame) : 0.100
Stream size : 1.60 GiB (95%)
Language : English
Encoded date : UTC 2020-12-16 20:55:02
Tagged date : UTC 2020-12-16 20:55:02

Audio
ID : 2
Format : AAC
Format/Info : Advanced Audio Codec
Format profile : LC
Codec ID : mp4a-40-2
Duration : 36 min 55 s
Source duration : 36 min 55 s
Bit rate mode : Variable
Bit rate : 317 kb/s
Maximum bit rate : 360 kb/s
Channel(s) : 2 channels
Channel positions : Front: L R
Sampling rate : 48.0 kHz
Frame rate : 46.875 FPS (1024 SPF)
Compression mode : Lossy
Stream size : 83.8 MiB (5%)
Source stream size : 83.8 MiB (5%)
Language : English
Encoded date : UTC 2020-12-16 20:55:02
Tagged date : UTC 2020-12-16 20:55:02

Screenshots

Pavel Tsatsouline - Kettlebells  StrongFirst

Pavel Tsatsouline - Kettlebells  StrongFirst

Pavel Tsatsouline - Kettlebells  StrongFirst

Pavel Tsatsouline - Kettlebells  StrongFirst


Buy Premium Account From My Download Links And Get Resumable Support & SUPER Fastest speed

rapidgator_net:
https://rapidgator.net/file/70113b66cd14bbdae55537e13f84c3b3/02ymm.Pavel.Tsatsouline..Kettlebells.StrongFirst.part1.rar.html
https://rapidgator.net/file/baff9f8897b6f8f11cdc65f2f0f3ef55/02ymm.Pavel.Tsatsouline..Kettlebells.StrongFirst.part2.rar.html
https://rapidgator.net/file/28bd2068b7b023d54c25ee19bc9abe84/02ymm.Pavel.Tsatsouline..Kettlebells.StrongFirst.part3.rar.html
https://rapidgator.net/file/a9d12847b98d7ccb44e69b402f4e5d19/02ymm.Pavel.Tsatsouline..Kettlebells.StrongFirst.part4.rar.html
https://rapidgator.net/file/881b641be92aaf122aa0c01c06229f07/02ymm.Pavel.Tsatsouline..Kettlebells.StrongFirst.part5.rar.html
https://rapidgator.net/file/a8364efbdd70080b938e4a49cb6344d9/02ymm.Pavel.Tsatsouline..Kettlebells.StrongFirst.part6.rar.html
https://rapidgator.net/file/89d2b81b899cee7cf0eb42e1c19ab5e7/02ymm.Pavel.Tsatsouline..Kettlebells.StrongFirst.part7.rar.html

nitroflare_com:
https://nitroflare.com/view/15D704CAACF21AC/02ymm.Pavel.Tsatsouline..Kettlebells.StrongFirst.part1.rar
https://nitroflare.com/view/218F13A2C798A0D/02ymm.Pavel.Tsatsouline..Kettlebells.StrongFirst.part2.rar
https://nitroflare.com/view/B47325F11D4B3F9/02ymm.Pavel.Tsatsouline..Kettlebells.StrongFirst.part3.rar
https://nitroflare.com/view/ACA7D815FBA29F0/02ymm.Pavel.Tsatsouline..Kettlebells.StrongFirst.part4.rar
https://nitroflare.com/view/F6F667544DEEFBE/02ymm.Pavel.Tsatsouline..Kettlebells.StrongFirst.part5.rar
https://nitroflare.com/view/338B1A415433D3C/02ymm.Pavel.Tsatsouline..Kettlebells.StrongFirst.part6.rar
https://nitroflare.com/view/B02C5409BBC7574/02ymm.Pavel.Tsatsouline..Kettlebells.StrongFirst.part7.rar


Links are Interchangeable - No Password - Single Extraction


Rapidgator.net
Site BBcode/HTML Code:
Dear visitor, you went to the site as unregistered user.
We recommend you Sign up or Login to website under your name.
Information
Would you like to leave your comment? Please Login to your account to leave comments. Don't have an account? You can create a free account now.

Tag Cloud

archive of news

^