» » TTC Video - Scientific Secrets for a Powerful Memory [720p]



Information of news
  • Author: mitsumi
  • Date: 14-04-2020, 01:42
14-04-2020, 01:42

TTC Video - Scientific Secrets for a Powerful Memory [720p]

Category: Tutorials

TTC Video - Scientific Secrets for a Powerful Memory  [720p]


TTC Video - Scientific Secrets for a Powerful Memory
6xWEBRip | English | MP4 | 1280 x 720 | AVC ~1904 kbps | 29.970 fps
AAC | 96 Kbps | 44.1 KHz | 2 channels | 03:07:10 | 2.63 GB
Genre: eLearning Video / Self Improvement
Tap into your brain's hidden potential and increase your memory capacity with this brief and effective course taught by a professor of Psychology.


Includes:

0: Course Trailer
1: Your Amazing Prehistoric Memory
2: Encoding Information with Images
3: Maximizing Short- and Long-Term Memory
4: Why and When We Forget
5: Keeping Your Whole Brain in Peak Condition
6: Human Memory Is Reconstruction, Not Replay

About Peter M. Vishton
Dr. Peter M. Vishton is Associate Professor of Psychology at The College of William & Mary. He earned his Ph.D. in Psychology and Cognitive Science from Cornell University. Before joining the faculty of William & Mary, he taught at Northwestern University and served as the program director for developmental and learning sciences at the National Science Foundation. A consulting editor for the journal Child Development, Professor Vishton has published articles in many of the top journals in the field of psychology. Among these are Psychological Science, Science, and the Journal of Experimental Psychology. He is also the creator of the DVD What Babies Can Do: An Activity-Based Guide to Infant Development. In addition to teaching, Professor Vishton devotes much of his career to researching the perception and action control of both infants and adults. His studies-funded by prestigious institutions, including the National Institute of Child Health and Development and the National Science Foundation-focus on cognitive, perceptual, and motor development; visually guided action; visual perception; computational vision and motor control; and human-computer interface. Professor Vishton has presented his findings at numerous conferences and invited talks throughout the United States and Europe.

General
Complete name : 3 - Maximizing Short- and Long-Term Memory.mp4
Format : MPEG-4
Format profile : Base Media
Codec ID : isom (isom/iso2/avc1/mp41)
File size : 428 MiB
Duration : 29 min 47 s
Overall bit rate mode : Constant
Overall bit rate : 2 010 kb/s
Writing application : Lavf58.27.103

Video
ID : 1
Format : AVC
Format/Info : Advanced Video Codec
Format profile : [email protected]
Format settings : CABAC / 3 Ref Frames
Format settings, CABAC : Yes
Format settings, RefFrames : 3 frames
Codec ID : avc1
Codec ID/Info : Advanced Video Coding
Duration : 29 min 47 s
Bit rate mode : Constant
Bit rate : 1 904 kb/s
Width : 1 280 pixels
Height : 720 pixels
Display aspect ratio : 16:9
Frame rate mode : Variable
Frame rate : 29.970 (30000/1001) FPS
Minimum frame rate : 29.412 FPS
Maximum frame rate : 30.303 FPS
Color space : YUV
Chroma subsampling : 4:2:0
Bit depth : 8 bits
Scan type : Progressive
Bits/(Pixel*Frame) : 0.069
Stream size : 406 MiB (95%)

Audio
ID : 2
Format : AAC
Format/Info : Advanced Audio Codec
Format profile : LC
Codec ID : mp4a-40-2
Duration : 29 min 47 s
Bit rate mode : Constant
Bit rate : 96.0 kb/s
Channel(s) : 2 channels
Channel positions : Front: L R
Sampling rate : 44.1 kHz
Frame rate : 43.066 FPS (1024 SPF)
Compression mode : Lossy
Stream size : 20.5 MiB (5%)
Default : Yes
Alternate group : 1

Text #1
ID : 1-CC1
Format : EIA-608
Muxing mode : SCTE 128 / DTVCC Transport
Muxing mode, more info : Muxed in Video #1
Duration : 29 min 47 s
Bit rate mode : Constant
Stream size : 0.00 Byte (0%)
Encoded stream size : 0.00 Byte (0%)
CaptionServiceName : CC1

Text #2
ID : 1-1
Format : EIA-708
Muxing mode : SCTE 128 / DTVCC Transport
Muxing mode, more info : Muxed in Video #1
Duration : 29 min 47 s
Bit rate mode : Constant
Stream size : 0.00 Byte (0%)
Encoded stream size : 0.00 Byte (0%)

Screenshots


TTC Video - Scientific Secrets for a Powerful Memory  [720p]
TTC Video - Scientific Secrets for a Powerful Memory  [720p]
TTC Video - Scientific Secrets for a Powerful Memory  [720p]


Download link:

rapidgator_net:
https://rapidgator.net/file/594d2856dc83a59b876c015dcb2210a1/qm38z.0..Course.Trailer.mp4.html
https://rapidgator.net/file/d0762a8495cc2e006bf98ea6d24f08fc/qm38z.1..Your.Amazing.Prehistoric.Memory.mp4.html
https://rapidgator.net/file/66cbaf457cfef0234afa697569c45788/qm38z.2..Encoding.Information.with.Images.mp4.html
https://rapidgator.net/file/8e80633cd0278526732ab62a5b141d09/qm38z.3..Maximizing.Short.and.LongTerm.Memory.mp4.html
https://rapidgator.net/file/a40424968aef54b5722bc025340ae0b5/qm38z.4..Why.and.When.We.Forget.mp4.html
https://rapidgator.net/file/588d0957473f1372a1d4b7f3d50797d9/qm38z.5..Keeping.Your.Whole.Brain.in.Peak.Condition.mp4.html
https://rapidgator.net/file/f9e25b2829f174341bc0b8edc11b80b0/qm38z.6..Human.Memory.Is.Reconstruction.Not.Replay.mp4.html

nitroflare_com:
https://nitroflare.com/view/BBF977B139A4068/qm38z.0..Course.Trailer.mp4
https://nitroflare.com/view/7B58A56460DADB6/qm38z.1..Your.Amazing.Prehistoric.Memory.mp4
https://nitroflare.com/view/CA3AD030C54284A/qm38z.2..Encoding.Information.with.Images.mp4
https://nitroflare.com/view/CBAC9E486BFF527/qm38z.3..Maximizing.Short.and.LongTerm.Memory.mp4
https://nitroflare.com/view/DB8B92A6263797B/qm38z.4..Why.and.When.We.Forget.mp4
https://nitroflare.com/view/ED783B5F76A6861/qm38z.5..Keeping.Your.Whole.Brain.in.Peak.Condition.mp4
https://nitroflare.com/view/B1423B880619F97/qm38z.6..Human.Memory.Is.Reconstruction.Not.Replay.mp4

uploadgig_com:
http://uploadgig.com/file/download/703c67503ac03020/qm38z.0..Course.Trailer.mp4
http://uploadgig.com/file/download/03f00371550ce868/qm38z.1..Your.Amazing.Prehistoric.Memory.mp4
http://uploadgig.com/file/download/71198e61153da533/qm38z.2..Encoding.Information.with.Images.mp4
http://uploadgig.com/file/download/d6daCb4baC20e946/qm38z.3..Maximizing.Short.and.LongTerm.Memory.mp4
http://uploadgig.com/file/download/Fc3f2513eb9ad5f8/qm38z.4..Why.and.When.We.Forget.mp4
http://uploadgig.com/file/download/449c937a61462043/qm38z.5..Keeping.Your.Whole.Brain.in.Peak.Condition.mp4
http://uploadgig.com/file/download/30300f49F431baE1/qm38z.6..Human.Memory.Is.Reconstruction.Not.Replay.mp4


Links are Interchangeable - No Password - Single Extraction


Rapidgator.net
Site BBcode/HTML Code:
Dear visitor, you went to the site as unregistered user.
We recommend you Sign up or Login to website under your name.
Information
Would you like to leave your comment? Please Login to your account to leave comments. Don't have an account? You can create a free account now.

Tag Cloud

archive of news

^