Information of news
  • Author: voska89
  • Date: 28-11-2019, 08:04
28-11-2019, 08:04

InformedTrades - Basics of Trading Course

Category: Tutorials » Other


InformedTrades - Basics of Trading Course
InformedTrades - Basics of Trading Course
WEBRip | English | FLV | 320 x 240 | AVC ~221 Kbps | 15 fps
MP3 | 99.6 Kbps | 44.1 KHz | 2 channels | ~7 hours | 1.21 GB


[i]Genre: eLearning Video / Forex, Trading, Stock[/i]
An introduction to the basic concepts needed to trade any market Basics of Trading Video Course from InformedTrades.com A 75 Lesson video course meant to give traders an introduction to the basics of trading as well as the components necessary to develop a profitable trading plan. InformedTrades.com Forex Trading Video Course
x InformedTrades - Basics of Trading Course





Close




InformedTrades - Basics of Trading Course
WEBRip | English | FLV | 320 x 240 | AVC ~221 Kbps | 15 fps
MP3 | 99.6 Kbps | 44.1 KHz | 2 channels | ~7 hours | 1.21 GB
[i]Genre: eLearning Video / Forex, Trading, Stock[/i]
An introduction to the basic concepts needed to trade any market Basics of Trading Video Course from InformedTrades.com A 75 Lesson video course meant to give traders an introduction to the basics of trading as well as the components necessary to develop a profitable trading plan. InformedTrades.com Forex Trading Video Course
An introduction and in depth look at the forex market, including how to place trades, the fundamentals of the forex market, profiles of the main currency pairs, and factors to consider when choosing a forex broker.
InformedTrades.com Futures Trading Video Course
A video course covering the basics of futures and commodities trading for daytraders and longer term traders.
Module 1: Technical Analysis Basics
Module 2: Chart Patterns
Module 3: Technical Indicators
Module 4: Candlestick Chart Formations
Module 5: The Psychology of Trading
Module 6: Money Management
Module 7: Position Sizing
Module 8: Intro to Fundamental Analysis
Module 9: Economic Releases that Move the Markets
Module 10: Pulling It All Together



General
Complete name : 138. An Introduction to DailyFX Plus.flv
Format : Flash Video
File size : 13.0 MiB
Duration : 5 min 56 s
Overall bit rate : 306 kb/s
Writing application : YouTube, Inc.
Tagging application : YouTube Metadata Injector.
flvsource : cdbp
Video
Format : Sorenson Spark
Codec ID : 2
Duration : 5 min 56 s
Bit rate : 221 kb/s
Width : 320 pixels
Height : 240 pixels
Display aspect ratio : 4:3
Frame rate mode : Constant
Frame rate : 15.000 FPS
Bit depth : 8 bits
Bits/(Pixel*Frame) : 0.192
Stream size : 9.41 MiB (72%)
Audio
Format : MPEG Audio
Format version : Version 2
Format profile : Layer 3
Codec ID : 2
Codec ID/Hint : MP3
Duration : 5 min 56 s
Bit rate mode : Constant
Bit rate : 64.0 kb/s
Channel(s) : 1 channel
Sampling rate : 22.05 kHz
Compression mode : Lossy
Stream size : 2.72 MiB (21%)
Writing library : LAME






x InformedTrades - Basics of Trading Course





Close









x InformedTrades - Basics of Trading Course





Close









x InformedTrades - Basics of Trading Course





Close









x InformedTrades - Basics of Trading Course





Close









x InformedTrades - Basics of Trading Course





Close






when links are dead or want any repost[/i]





x InformedTrades - Basics of Trading Course





Close

Buy Premium From My Links To Get Resumable Support,Max Speed & Support Me

Download (Uploadgig)
https://uploadgig.com/file/download/01321c45049AfDa1/ywm5v.InformedTrades..Basics.of.Trading.Course.part01.rar
https://uploadgig.com/file/download/7e112Ab1dd85276d/ywm5v.InformedTrades..Basics.of.Trading.Course.part02.rar
https://uploadgig.com/file/download/455A7bf275c65740/ywm5v.InformedTrades..Basics.of.Trading.Course.part03.rar
https://uploadgig.com/file/download/a2d4630B240625B4/ywm5v.InformedTrades..Basics.of.Trading.Course.part04.rar
https://uploadgig.com/file/download/1100B0e3b84cb934/ywm5v.InformedTrades..Basics.of.Trading.Course.part05.rar
https://uploadgig.com/file/download/0c82bb5ff63e8B07/ywm5v.InformedTrades..Basics.of.Trading.Course.part06.rar
https://uploadgig.com/file/download/088e9aeB904ce9E3/ywm5v.InformedTrades..Basics.of.Trading.Course.part07.rar
https://uploadgig.com/file/download/87384bc6E4fa508a/ywm5v.InformedTrades..Basics.of.Trading.Course.part08.rar
https://uploadgig.com/file/download/50d97057E665562e/ywm5v.InformedTrades..Basics.of.Trading.Course.part09.rar
Download ( Rapidgator )
https://rapidgator.net/file/028ff792c15b8b46ff0618ccf416e30c/ywm5v.InformedTrades..Basics.of.Trading.Course.part01.rar
https://rapidgator.net/file/14860887fd73a762726aa9ddb1a52d52/ywm5v.InformedTrades..Basics.of.Trading.Course.part02.rar
https://rapidgator.net/file/580c520ca6655c0b8b37dea43b601137/ywm5v.InformedTrades..Basics.of.Trading.Course.part03.rar
https://rapidgator.net/file/c9e524da83be62f6a3afb39fecb44356/ywm5v.InformedTrades..Basics.of.Trading.Course.part04.rar
https://rapidgator.net/file/64f4c08f64ee472dd0e4a43d4db50d9c/ywm5v.InformedTrades..Basics.of.Trading.Course.part05.rar
https://rapidgator.net/file/266741c5c98b3cb077e1b0ed0bd12b37/ywm5v.InformedTrades..Basics.of.Trading.Course.part06.rar
https://rapidgator.net/file/5e7f7986aceb2756deb97d4bc325ac3a/ywm5v.InformedTrades..Basics.of.Trading.Course.part07.rar
https://rapidgator.net/file/0994f6175486f999d22c7e51924a5a8b/ywm5v.InformedTrades..Basics.of.Trading.Course.part08.rar
https://rapidgator.net/file/545dd0319ae3bd377cf93f4d983879ff/ywm5v.InformedTrades..Basics.of.Trading.Course.part09.rar
Download ( NitroFlare )
http://nitroflare.com/view/75B19104AA10CA3/ywm5v.InformedTrades..Basics.of.Trading.Course.part01.rar
http://nitroflare.com/view/33AD7B1D1105F5E/ywm5v.InformedTrades..Basics.of.Trading.Course.part02.rar
http://nitroflare.com/view/D79BC329C120CE6/ywm5v.InformedTrades..Basics.of.Trading.Course.part03.rar
http://nitroflare.com/view/B2C32E0C050EE65/ywm5v.InformedTrades..Basics.of.Trading.Course.part04.rar
http://nitroflare.com/view/44D6FA0ABB596F4/ywm5v.InformedTrades..Basics.of.Trading.Course.part05.rar
http://nitroflare.com/view/98D9FF2590594F8/ywm5v.InformedTrades..Basics.of.Trading.Course.part06.rar
http://nitroflare.com/view/A890557CCE19FB9/ywm5v.InformedTrades..Basics.of.Trading.Course.part07.rar
http://nitroflare.com/view/911CE8C579305DD/ywm5v.InformedTrades..Basics.of.Trading.Course.part08.rar
http://nitroflare.com/view/2AFD28EAD57334B/ywm5v.InformedTrades..Basics.of.Trading.Course.part09.rar


Rapidgator.net
Site BBcode/HTML Code:
Dear visitor, you went to the site as unregistered user.
We recommend you Sign up or Login to website under your name.
Information
Would you like to leave your comment? Please Login to your account to leave comments. Don't have an account? You can create a free account now.

Tag Cloud

archive of news

^