» » Electric Light Orchestra - Live At Winterland '76 (1998) Repost



Information of news
11-06-2015, 20:54

Electric Light Orchestra - Live At Winterland '76 (1998) Repost

Category: Music

Electric Light Orchestra - Live At Winterland '76 (1998) Repost

Electric Light Orchestra (ELO) - Live At Winterland '76 (1998)
EAC Rip | FLAC: Tracks+Cue+Log | 430 Mb | MP3 CBR 320 kbps | 149 Mb | Scans | Time: 01:00:32
Genre: Progressive Rock, Symphonic Rock, Art Rock | Label: Eagle Records | Cat.№: EAMCD038

"Live at Winterland '76 is a live album by the Electric Light Orchestra (ELO) released in 1998. Recorded in 1976 during the band's Face the Music Tour, this album, along with 1974's The Night the Light Went On in Long Beach are two official releases of the band performing live. Electric Light Orchestra was at the top of their game when this concert was recorded. The band was right in the middle of a run of Top 10 hits that started in 1973 (with their second LP, ELO II), and continued throughout the rest of the '70s."

Track Listing

01. Fire On High (05:28)
02. Poker (04:01)
03. Nightrider (04:36)
04. Showdown (04:42)
05. Eldorado Suite (Including Can't Get It Out Of My Head) (13:14)
06. Strange Magic (05:06)
07. Medley: 10538 Overture / Do Ya (05:27)
08. Evil Woman (04:39)
09. Ma Ma Ma Belle (06:36)
10. Roll Over Beethoven (06:37)

Produced by Jeff Lynne

The Band

* Jeff Lynne - guitars, vocals
* Bev Bevan - drums, percussion
* Richard Tandy - keyboards
* Kelly Groucutt - bass, vocals
* Mik Kaminski - violin
* Melvyn Gale - cello
* Hugh McDowell - cello

Exact Audio Copy V0.99 prebeta 4 from 23. January 2008

Отчёт EAC об извлечении, выполненном 28. ноября 2010, 18:03

Electric Light Orchestra / Live At Winterland '76

Дисковод: HL-DT-STDVDRAM GSA-E40N Adapter: 2 ID: 0

Режим чтения : Достоверность
Использование точного потока : Да
Отключение кэша аудио : Да
Использование указателей C2 : Нет

Коррекция смещения при чтении : 667
Способность читать области Lead-in и Lead-out : Нет
Заполнение пропущенных сэмплов тишиной : Да
Удаление блоков с тишиной в начале и конце : Нет
При вычислениях CRC использовались нулевые сэмплы : Да
Интерфейс : Встроенный Win32-интерфейс для Win NT/2000
Обработка зазоров : Добавлено к предыдущему треку

Выходной формат : Пользовательский кодировщик
Выбранный битрейт : 128 kBit/s
Качество : Высокий
Добавление ID3-тэга : Нет
Утилита сжатия : C:\Program Files\Exact Audio Copy\FLAC\FLAC.EXE
Дополнительные параметры : -6 -V -T "ARTIST=%a" -T "TITLE=%t" -T "ALBUM=%g" -T "DATE=%y" -T "TRACKNUMBER=%n" -T "GENRE=%m" -T "COMMENT=%e" %s -o %d

TOC извлечённого CD

Трек | Старт | Длительность | Начальный сектор | Конечный сектор
---------------------------------------------------------------------
1 | 0:00.00 | 5:28.52 | 0 | 24651
2 | 5:28.52 | 4:01.70 | 24652 | 42796
3 | 9:30.47 | 4:36.43 | 42797 | 63539
4 | 14:07.15 | 4:42.62 | 63540 | 84751
5 | 18:50.02 | 13:14.55 | 84752 | 144356
6 | 32:04.57 | 5:06.23 | 144357 | 167329
7 | 37:11.05 | 5:27.37 | 167330 | 191891
8 | 42:38.42 | 4:39.20 | 191892 | 212836
9 | 47:17.62 | 6:36.48 | 212837 | 242584
10 | 53:54.35 | 6:37.40 | 242585 | 272399

Трек 1

Имя файла G:\ELO - All Live lossless\1976 - Live At Winterland\01 - Fire On High.wav

Длина предзазора 0:00:02.00

Пиковый уровень 90.9 %
Качество трека 99.9 %
CRC теста F2F86453
CRC копии F2F86453
Копирование... OK

Трек 2

Имя файла G:\ELO - All Live lossless\1976 - Live At Winterland\02 - Poker.wav

Пиковый уровень 88.9 %
Качество трека 100.0 %
CRC теста A401242F
CRC копии A401242F
Копирование... OK

Трек 3

Имя файла G:\ELO - All Live lossless\1976 - Live At Winterland\03 - Nightrider.wav

Пиковый уровень 92.8 %
Качество трека 99.8 %
CRC теста FB16A03A
CRC копии FB16A03A
Копирование... OK

Трек 4

Имя файла G:\ELO - All Live lossless\1976 - Live At Winterland\04 - Showdown.wav

Пиковый уровень 94.5 %
Качество трека 100.0 %
CRC теста 564AA8D1
CRC копии 564AA8D1
Копирование... OK

Трек 5

Имя файла G:\ELO - All Live lossless\1976 - Live At Winterland\05 - Eldorado Suite (including Can't Get It Out of My Head).wav

Пиковый уровень 89.6 %
Качество трека 100.0 %
CRC теста 23433FC5
CRC копии 23433FC5
Копирование... OK

Трек 6

Имя файла G:\ELO - All Live lossless\1976 - Live At Winterland\06 - Strange Magic.wav

Пиковый уровень 71.7 %
Качество трека 100.0 %
CRC теста 8DC393BD
CRC копии 8DC393BD
Копирование... OK

Трек 7

Имя файла G:\ELO - All Live lossless\1976 - Live At Winterland\07 - Medley- 10538 Overture,Do Ya.wav

Пиковый уровень 92.7 %
Качество трека 100.0 %
CRC теста 0E137595
CRC копии 0E137595
Копирование... OK

Трек 8

Имя файла G:\ELO - All Live lossless\1976 - Live At Winterland\08 - Evil Woman.wav

Пиковый уровень 87.8 %
Качество трека 99.9 %
CRC теста EFF20B38
CRC копии EFF20B38
Копирование... OK

Трек 9

Имя файла G:\ELO - All Live lossless\1976 - Live At Winterland\09 - Ma Ma Ma Belle.wav

Пиковый уровень 95.3 %
Качество трека 100.0 %
CRC теста 3411F4B1
CRC копии 3411F4B1
Копирование... OK

Трек 10

Имя файла G:\ELO - All Live lossless\1976 - Live At Winterland\10 - Roll Over Beethoven.wav

Пиковый уровень 97.9 %
Качество трека 100.0 %
CRC теста 726DA7B4
CRC копии 726DA7B4
Копирование... OK

Ошибок не произошло

Конец отчёта

Many thanks to the original uploader: goldenday
Download link:



Links are Interchangeable - No Password - Single Extraction

uploaded


Rapidgator.net
Site BBcode/HTML Code:

Tags to an Article: Electric, Light, Orchestra, Live, Winterland

Dear visitor, you went to the site as unregistered user.
We recommend you Sign up or Login to website under your name.
Information
Would you like to leave your comment? Please Login to your account to leave comments. Don't have an account? You can create a free account now.