» » Various Artists - Get That Jive: Australian Pop Of The 70's Vol. 1 [2CD] (2007)



Information of news
11-06-2015, 20:44

Various Artists - Get That Jive: Australian Pop Of The 70's Vol. 1 [2CD] (2007)

Category: Music

Various Artists - Get That Jive: Australian Pop Of The 70's Vol. 1 [2CD] (2007)

Various Artists - Get That Jive: Australian Pop Of The 70's Vol. 1 [2CD] (2007)
Pop, Pop/Rock, Soft Rock | EAC Rip | FLAC, Tracks+CUE + LOG + Covers (Back & Front)-300dpi (JPEG) | 68:08 + 73:16 Min | 949,65 Mb
Label: Sony BMG Music Entertainment (Australia) Pty Ltd. (AU) | Released: 2007, September, 24

"
A good collection of Australian music from the seventies, although often not the biggest hits of the included artists. It's also not all 'pop'. Quite alot of it is actually rock. The most notable inclusion here is Cheetah's "Walking in the Rain" a cover of the Ronette's 1964 original.
"

Release of this 2CD Set: 2007, September, 24 [CD Sony BMG Music Entertainment (Australia) Pty Ltd. (AU), Cat.# 88697008792 / EAN: 0886970087926]
This compilation © 2007 Sony BMG Music Entertainment (Australia) Pty Ltd.
Distributed in Australia by Sony BMG Music Entertainment Australia Pty Ltd.

Tracklist:

Disc One:

01. Sherbet - Summer Love
02. Mississippi - Will I
03. Mi-Sex - Computer Games
04. Robin Jolley - Marshall's Portable Music Machine
05. The Ferrets - Don't Fall In Love
06. The Masters Apprentices - Think About Tomorrow Today
07. Rick Springfield - Speak to the Sky
08. Moscos & Stone - Captain Captain
09. Bob Hudson - The Newcastle Song
10. Matt Taylor - I Remember When I Was Young
11. Colleen Hewett - Superstar
12. Marty Rhone - Denim & Lace
13. Axiom - My Baby's Gone
14. Silver Studs - Happy Days
15. Digby Richards - New York City
16. William Shakespeare - Can't Stop Myself From Loving You
17. Air Supply - Love and Other Bruises
18. Stylus - World Of Make Believe
19. The Mixtures - In The Summertime
20. John Farnham - Everything Is Out of Season

Disc Two:

01. Little River Band - Curiosity Killed The Cat
02. Hush - Glad All Over
03. Brian Cadd - Ginger Man
04. Skyhooks - Million Dollar Riff
05. Bjerre - She Taught Me How To Love Again
06. Linda George - Neither One Of Us (Wants To Be The First To Say Goodbye)
07. Finch - Where Were You
08. Ted Mulry Gang - Darktown Strutters Ball
09. Cheetah - Walking In The Rain
10. Supernaut - I Like It Both ways
11. Marcia Hines - From the Inside
12. Bluestone - Wind And Rain
13. Daddy Cool - Come Back Again
14. Russell Morris - Let's Do It
15. Stars - Look After Yourself
16. Alison MacCallum - Superman
17. The Sports - Who Listens To The Radio
18. Gene Pierson - Reach Out
19. Dragon - Get That Jive
20. John Paul Young - The Love Game

Exact Audio Copy V1.0 beta 3 from 29. August 2011

EAC extraction logfile from 5. November 2012, 23:39

Various Artists / Australian Pop of the 70s Vol 1 Get That Jive Disc 1

Used drive : HL-DT-STDVDRAM GSA-4163B Adapter: 1 ID: 0

Read mode : Secure
Utilize accurate stream : Yes
Defeat audio cache : Yes
Make use of C2 pointers : No

Read offset correction : 667
Overread into Lead-In and Lead-Out : No
Fill up missing offset samples with silence : Yes
Delete leading and trailing silent blocks : No
Null samples used in CRC calculations : Yes
Used interface : Native Win32 interface for Win NT & 2000
Gap handling : Appended to previous track

Used output format : User Defined Encoder
Selected bitrate : 1024 kBit/s
Quality : High
Add ID3 tag : Yes
Command line compressor : C:\Program Files\Exact Audio Copy\Flac\flac.exe
Additional command line options : -8 -V -T "ARTIST=%artist%" -T "TITLE=%title%" -T "ALBUM=%albumtitle%" -T "DATE=%year%" -T "TRACKNUMBER=%tracknr%" -T "GENRE=%genre%" -T "COMMENT=%comment%" -T "BAND=%albuminterpret%" -T "COMPOSER=%composer%" %haslyrics%--tag-from-file=LYRICS="%lyricsfile%"%haslyrics% -T "DISCNUMBER=%cdnumber%" -T "TOTALDISCS=%totalcds%" -T "TOTALTRACKS=%numtracks%" %hascover%--picture="%coverfile%"%hascover% %source% -o %dest%

TOC of the extracted CD

Track | Start | Length | Start sector | End sector
---------------------------------------------------------
1 | 0:00.00 | 3:37.01 | 0 | 16275
2 | 3:37.01 | 5:03.68 | 16276 | 39068
3 | 8:40.69 | 4:03.32 | 39069 | 57325
4 | 12:44.26 | 3:40.41 | 57326 | 73866
5 | 16:24.67 | 3:13.65 | 73867 | 88406
6 | 19:38.57 | 3:20.48 | 88407 | 103454
7 | 22:59.30 | 2:51.61 | 103455 | 116340
8 | 25:51.16 | 3:07.02 | 116341 | 130367
9 | 28:58.18 | 2:59.46 | 130368 | 143838
10 | 31:57.64 | 3:59.70 | 143839 | 161833
11 | 35:57.59 | 3:58.71 | 161834 | 179754
12 | 39:56.55 | 2:47.37 | 179755 | 192316
13 | 42:44.17 | 3:17.39 | 192317 | 207130
14 | 46:01.56 | 2:20.02 | 207131 | 217632
15 | 48:21.58 | 3:02.66 | 217633 | 231348
16 | 51:24.49 | 3:13.28 | 231349 | 245851
17 | 54:38.02 | 3:40.24 | 245852 | 262375
18 | 58:18.26 | 3:47.04 | 262376 | 279404
19 | 62:05.30 | 2:49.07 | 279405 | 292086
20 | 64:54.37 | 3:13.52 | 292087 | 306613

Track 1

Filename C:\Exact Audio Copy\Various Artists\Australian Pop of the 70s Vol 1 Get That Jive Disc 1\01. Summer Love.wav

Pre-gap length 0:00:02.00

Peak level 98.8 %
Extraction speed 4.3 X
Track quality 100.0 %
Test CRC B2723A86
Copy CRC B2723A86
Accurately ripped (confidence 4) [148958C6] (AR v1)
Copy OK

Track 2

Filename C:\Exact Audio Copy\Various Artists\Australian Pop of the 70s Vol 1 Get That Jive Disc 1\02. Will I.wav

Pre-gap length 0:00:01.45

Peak level 100.0 %
Extraction speed 4.9 X
Track quality 100.0 %
Test CRC A16F045C
Copy CRC A16F045C
Accurately ripped (confidence 5) [D34A2DD9] (AR v1)
Copy OK

Track 3

Filename C:\Exact Audio Copy\Various Artists\Australian Pop of the 70s Vol 1 Get That Jive Disc 1\03. Computer Games.wav

Pre-gap length 0:00:00.49

Peak level 97.2 %
Extraction speed 4.8 X
Track quality 100.0 %
Test CRC 0944F223
Copy CRC 0944F223
Accurately ripped (confidence 3) [63E9AF63] (AR v1)
Copy OK

Track 4

Filename C:\Exact Audio Copy\Various Artists\Australian Pop of the 70s Vol 1 Get That Jive Disc 1\04. Marshall's Portable Music Machine.wav

Pre-gap length 0:00:00.63

Peak level 96.6 %
Extraction speed 5.6 X
Track quality 100.0 %
Test CRC 415489ED
Copy CRC 415489ED
Accurately ripped (confidence 3) [C57B0862] (AR v1)
Copy OK

Track 5

Filename C:\Exact Audio Copy\Various Artists\Australian Pop of the 70s Vol 1 Get That Jive Disc 1\05. Don't Fall in Love.wav

Pre-gap length 0:00:00.48

Peak level 75.5 %
Extraction speed 4.4 X
Track quality 99.9 %
Test CRC AF2A8BA1
Copy CRC AF2A8BA1
Accurately ripped (confidence 4) [54D003F3] (AR v1)
Copy OK

Track 6

Filename C:\Exact Audio Copy\Various Artists\Australian Pop of the 70s Vol 1 Get That Jive Disc 1\06. Don't Think About Tomorrow Today.wav

Pre-gap length 0:00:00.36

Peak level 100.0 %
Extraction speed 6.0 X
Track quality 100.0 %
Test CRC 85E41251
Copy CRC 85E41251
Accurately ripped (confidence 4) [40D1EC71] (AR v1)
Copy OK

Track 7

Filename C:\Exact Audio Copy\Various Artists\Australian Pop of the 70s Vol 1 Get That Jive Disc 1\07. Speak to the Sky.wav

Pre-gap length 0:00:01.05

Peak level 100.0 %
Extraction speed 5.5 X
Track quality 100.0 %
Test CRC F691C544
Copy CRC F691C544
Accurately ripped (confidence 3) [DAFAADD6] (AR v1)
Copy OK

Track 8

Filename C:\Exact Audio Copy\Various Artists\Australian Pop of the 70s Vol 1 Get That Jive Disc 1\08. Captain Captain.wav

Pre-gap length 0:00:01.00

Peak level 100.0 %
Extraction speed 6.4 X
Track quality 100.0 %
Test CRC 299D7D60
Copy CRC 299D7D60
Accurately ripped (confidence 3) [045B75D1] (AR v1)
Copy OK

Track 9

Filename C:\Exact Audio Copy\Various Artists\Australian Pop of the 70s Vol 1 Get That Jive Disc 1\09. The Newcastle Song.wav

Pre-gap length 0:00:00.47

Peak level 100.0 %
Extraction speed 5.5 X
Track quality 99.9 %
Test CRC 6C8DA72E
Copy CRC 6C8DA72E
Accurately ripped (confidence 3) [FD2FDCB8] (AR v1)
Copy OK

Track 10

Filename C:\Exact Audio Copy\Various Artists\Australian Pop of the 70s Vol 1 Get That Jive Disc 1\10. I Remember When I Was Young.wav

Pre-gap length 0:00:01.02

Peak level 73.2 %
Extraction speed 6.9 X
Track quality 100.0 %
Test CRC 0D3BF25B
Copy CRC 0D3BF25B
Accurately ripped (confidence 4) [79ECA2AE] (AR v1)
Copy OK

Track 11

Filename C:\Exact Audio Copy\Various Artists\Australian Pop of the 70s Vol 1 Get That Jive Disc 1\11. Superstar.wav

Pre-gap length 0:00:01.33

Peak level 99.6 %
Extraction speed 7.2 X
Track quality 100.0 %
Test CRC 7885BEA3
Copy CRC 7885BEA3
Accurately ripped (confidence 4) [0AC77C39] (AR v1)
Copy OK

Track 12

Filename C:\Exact Audio Copy\Various Artists\Australian Pop of the 70s Vol 1 Get That Jive Disc 1\12. Denim & Lace.wav

Pre-gap length 0:00:01.16

Peak level 69.4 %
Extraction speed 6.5 X
Track quality 100.0 %
Test CRC 05E55A3E
Copy CRC 05E55A3E
Accurately ripped (confidence 4) [1C799518] (AR v1)
Copy OK

Track 13

Filename C:\Exact Audio Copy\Various Artists\Australian Pop of the 70s Vol 1 Get That Jive Disc 1\13. My Baby's Gone.wav

Pre-gap length 0:00:01.13

Peak level 71.0 %
Extraction speed 6.4 X
Track quality 99.9 %
Test CRC E0B3301D
Copy CRC E0B3301D
Accurately ripped (confidence 4) [8365AEB1] (AR v1)
Copy OK

Track 14

Filename C:\Exact Audio Copy\Various Artists\Australian Pop of the 70s Vol 1 Get That Jive Disc 1\14. Happy Days.wav

Pre-gap length 0:00:01.20

Peak level 95.4 %
Extraction speed 6.9 X
Track quality 100.0 %
Test CRC 0441A574
Copy CRC 0441A574
Accurately ripped (confidence 4) [EBAC3664] (AR v1)
Copy OK

Track 15

Filename C:\Exact Audio Copy\Various Artists\Australian Pop of the 70s Vol 1 Get That Jive Disc 1\15. New York City.wav

Pre-gap length 0:00:00.68

Peak level 77.8 %
Extraction speed 7.5 X
Track quality 100.0 %
Test CRC D83BC05A
Copy CRC D83BC05A
Accurately ripped (confidence 4) [F9081D4D] (AR v1)
Copy OK

Track 16

Filename C:\Exact Audio Copy\Various Artists\Australian Pop of the 70s Vol 1 Get That Jive Disc 1\16. Can't Stop Myself from Loving You.wav

Pre-gap length 0:00:01.25

Peak level 96.6 %
Extraction speed 7.0 X
Track quality 100.0 %
Test CRC 248B76B9
Copy CRC 248B76B9
Accurately ripped (confidence 4) [A92A8935] (AR v1)
Copy OK

Track 17

Filename C:\Exact Audio Copy\Various Artists\Australian Pop of the 70s Vol 1 Get That Jive Disc 1\17. Love and Other Bruises.wav

Pre-gap length 0:00:01.09

Peak level 88.8 %
Extraction speed 7.0 X
Track quality 100.0 %
Test CRC D6D60AFC
Copy CRC D6D60AFC
Accurately ripped (confidence 4) [388132CA] (AR v1)
Copy OK

Track 18

Filename C:\Exact Audio Copy\Various Artists\Australian Pop of the 70s Vol 1 Get That Jive Disc 1\18. World of Make Believe.wav

Pre-gap length 0:00:01.48

Peak level 97.8 %
Extraction speed 6.3 X
Track quality 99.9 %
Test CRC 8848E074
Copy CRC 8848E074
Accurately ripped (confidence 4) [1BFF4EC5] (AR v1)
Copy OK

Track 19

Filename C:\Exact Audio Copy\Various Artists\Australian Pop of the 70s Vol 1 Get That Jive Disc 1\19. In the Summertime.wav

Pre-gap length 0:00:00.59

Peak level 96.6 %
Extraction speed 8.2 X
Track quality 100.0 %
Test CRC 74164017
Copy CRC 74164017
Accurately ripped (confidence 4) [DC6ED75C] (AR v1)
Copy OK

Track 20

Filename C:\Exact Audio Copy\Various Artists\Australian Pop of the 70s Vol 1 Get That Jive Disc 1\20. Everything Is Out of Season.wav

Pre-gap length 0:00:00.60

Peak level 76.1 %
Extraction speed 8.6 X
Track quality 100.0 %
Test CRC 2D1AD092
Copy CRC 2D1AD092
Accurately ripped (confidence 4) [75DFFC46] (AR v1)
Copy OK

All tracks accurately ripped

No errors occurred

End of status report

==== Log checksum 913E272542CA9E4D0C4859C7FA63A14814BA93682E272C1515BF9141D4D70205 ====

Exact Audio Copy V1.0 beta 3 from 29. August 2011

EAC extraction logfile from 6. November 2012, 0:11

Various Artists / Australian Pop of the 70s Vol 1 Get That Jive Disc 2

Used drive : HL-DT-STDVDRAM GSA-4163B Adapter: 1 ID: 0

Read mode : Secure
Utilize accurate stream : Yes
Defeat audio cache : Yes
Make use of C2 pointers : No

Read offset correction : 667
Overread into Lead-In and Lead-Out : No
Fill up missing offset samples with silence : Yes
Delete leading and trailing silent blocks : No
Null samples used in CRC calculations : Yes
Used interface : Native Win32 interface for Win NT & 2000
Gap handling : Appended to previous track

Used output format : User Defined Encoder
Selected bitrate : 1024 kBit/s
Quality : High
Add ID3 tag : Yes
Command line compressor : C:\Program Files\Exact Audio Copy\Flac\flac.exe
Additional command line options : -8 -V -T "ARTIST=%artist%" -T "TITLE=%title%" -T "ALBUM=%albumtitle%" -T "DATE=%year%" -T "TRACKNUMBER=%tracknr%" -T "GENRE=%genre%" -T "COMMENT=%comment%" -T "BAND=%albuminterpret%" -T "COMPOSER=%composer%" %haslyrics%--tag-from-file=LYRICS="%lyricsfile%"%haslyrics% -T "DISCNUMBER=%cdnumber%" -T "TOTALDISCS=%totalcds%" -T "TOTALTRACKS=%numtracks%" %hascover%--picture="%coverfile%"%hascover% %source% -o %dest%

TOC of the extracted CD

Track | Start | Length | Start sector | End sector
---------------------------------------------------------
1 | 0:00.00 | 3:42.23 | 0 | 16672
2 | 3:42.23 | 3:19.04 | 16673 | 31601
3 | 7:01.27 | 4:09.01 | 31602 | 50277
4 | 11:10.28 | 3:49.33 | 50278 | 67485
5 | 14:59.61 | 3:33.12 | 67486 | 83472
6 | 18:32.73 | 3:27.35 | 83473 | 99032
7 | 22:00.33 | 4:07.54 | 99033 | 117611
8 | 26:08.12 | 3:25.42 | 117612 | 133028
9 | 29:33.54 | 3:50.37 | 133029 | 150315
10 | 33:24.16 | 3:18.32 | 150316 | 165197
11 | 36:42.48 | 3:29.34 | 165198 | 180906
12 | 40:12.07 | 2:52.09 | 180907 | 193815
13 | 43:04.16 | 4:56.45 | 193816 | 216060
14 | 48:00.61 | 3:51.57 | 216061 | 233442
15 | 51:52.43 | 3:59.35 | 233443 | 251402
16 | 55:52.03 | 2:29.61 | 251403 | 262638
17 | 58:21.64 | 3:20.34 | 262639 | 277672
18 | 61:42.23 | 5:17.27 | 277673 | 301474
19 | 66:59.50 | 2:46.56 | 301475 | 313980
20 | 69:46.31 | 3:30.20 | 313981 | 329750

Track 1

Filename C:\Exact Audio Copy\Various Artists\Australian Pop of the 70s Vol 1 Get That Jive Disc 2\01. Curiosity Killed the Cat.wav

Pre-gap length 0:00:02.00

Peak level 100.0 %
Extraction speed 4.2 X
Track quality 100.0 %
Test CRC 9B64143E
Copy CRC 9B64143E
Accurately ripped (confidence 4) [66CF8F42] (AR v1)
Copy OK

Track 2

Filename C:\Exact Audio Copy\Various Artists\Australian Pop of the 70s Vol 1 Get That Jive Disc 2\02. Glad All Over.wav

Pre-gap length 0:00:01.39

Peak level 93.0 %
Extraction speed 4.3 X
Track quality 100.0 %
Test CRC 04F096BE
Copy CRC 04F096BE
Accurately ripped (confidence 5) [32130CD3] (AR v1)
Copy OK

Track 3

Filename C:\Exact Audio Copy\Various Artists\Australian Pop of the 70s Vol 1 Get That Jive Disc 2\03. Ginger Man.wav

Pre-gap length 0:00:01.52

Peak level 100.0 %
Extraction speed 4.2 X
Track quality 99.9 %
Test CRC 794F291D
Copy CRC 794F291D
Accurately ripped (confidence 4) [465B9914] (AR v1)
Copy OK

Track 4

Filename C:\Exact Audio Copy\Various Artists\Australian Pop of the 70s Vol 1 Get That Jive Disc 2\04. Million Dollar Riff.wav

Pre-gap length 0:00:01.13

Peak level 98.8 %
Extraction speed 5.3 X
Track quality 100.0 %
Test CRC 9AAEE44A
Copy CRC 9AAEE44A
Accurately ripped (confidence 4) [8BFF4CF6] (AR v1)
Copy OK

Track 5

Filename C:\Exact Audio Copy\Various Artists\Australian Pop of the 70s Vol 1 Get That Jive Disc 2\05. She Taught Me How to Love Again.wav

Pre-gap length 0:00:00.65

Peak level 83.9 %
Extraction speed 5.7 X
Track quality 100.0 %
Test CRC D6FAE373
Copy CRC D6FAE373
Accurately ripped (confidence 3) [47F82888] (AR v1)
Copy OK

Track 6

Filename C:\Exact Audio Copy\Various Artists\Australian Pop of the 70s Vol 1 Get That Jive Disc 2\06. Neither One of Us (Wants to Be the First to Say Goodbye).wav

Pre-gap length 0:00:01.42

Peak level 79.2 %
Extraction speed 4.8 X
Track quality 99.9 %
Test CRC D05E0526
Copy CRC D05E0526
Accurately ripped (confidence 3) [D8446C98] (AR v1)
Copy OK

Track 7

Filename C:\Exact Audio Copy\Various Artists\Australian Pop of the 70s Vol 1 Get That Jive Disc 2\07. Where Were You.wav

Pre-gap length 0:00:01.28

Peak level 100.0 %
Extraction speed 6.2 X
Track quality 100.0 %
Test CRC FDFD8EE8
Copy CRC FDFD8EE8
Accurately ripped (confidence 4) [FD23292A] (AR v1)
Copy OK

Track 8

Filename C:\Exact Audio Copy\Various Artists\Australian Pop of the 70s Vol 1 Get That Jive Disc 2\08. Darktown Strutters' Ball.wav

Pre-gap length 0:00:01.35

Peak level 96.6 %
Extraction speed 6.6 X
Track quality 100.0 %
Test CRC A8E564D3
Copy CRC A8E564D3
Accurately ripped (confidence 4) [E0FC8BF0] (AR v1)
Copy OK

Track 9

Filename C:\Exact Audio Copy\Various Artists\Australian Pop of the 70s Vol 1 Get That Jive Disc 2\09. Walking in the Rain.wav

Pre-gap length 0:00:00.39

Peak level 100.0 %
Extraction speed 6.6 X
Track quality 100.0 %
Test CRC 3078ADDF
Copy CRC 3078ADDF
Accurately ripped (confidence 4) [488E563E] (AR v1)
Copy OK

Track 10

Filename C:\Exact Audio Copy\Various Artists\Australian Pop of the 70s Vol 1 Get That Jive Disc 2\10. I Like It Both Ways.wav

Pre-gap length 0:00:00.71

Peak level 100.0 %
Extraction speed 6.8 X
Track quality 100.0 %
Test CRC F0BA0970
Copy CRC F0BA0970
Accurately ripped (confidence 4) [8A9C0FD6] (AR v1)
Copy OK

Track 11

Filename C:\Exact Audio Copy\Various Artists\Australian Pop of the 70s Vol 1 Get That Jive Disc 2\11. From the Inside.wav

Pre-gap length 0:00:01.18

Peak level 88.1 %
Extraction speed 5.9 X
Track quality 99.9 %
Test CRC CCC1C969
Copy CRC CCC1C969
Accurately ripped (confidence 3) [D6EC0B92] (AR v1)
Copy OK

Track 12

Filename C:\Exact Audio Copy\Various Artists\Australian Pop of the 70s Vol 1 Get That Jive Disc 2\12. Wind and Rain.wav

Pre-gap length 0:00:00.69

Peak level 93.2 %
Extraction speed 6.8 X
Track quality 100.0 %
Test CRC 613E6DF9
Copy CRC 613E6DF9
Accurately ripped (confidence 4) [81B4E4A1] (AR v1)
Copy OK

Track 13

Filename C:\Exact Audio Copy\Various Artists\Australian Pop of the 70s Vol 1 Get That Jive Disc 2\13. Come Back Again.wav

Pre-gap length 0:00:01.10

Peak level 77.6 %
Extraction speed 7.2 X
Track quality 100.0 %
Test CRC 4837B39F
Copy CRC 4837B39F
Accurately ripped (confidence 4) [3A3BB8CC] (AR v1)
Copy OK

Track 14

Filename C:\Exact Audio Copy\Various Artists\Australian Pop of the 70s Vol 1 Get That Jive Disc 2\14. Let's Do It.wav

Pre-gap length 0:00:01.41

Peak level 70.6 %
Extraction speed 7.0 X
Track quality 99.9 %
Test CRC 8148721F
Copy CRC 8148721F
Accurately ripped (confidence 4) E32D527 (AR v1)
Copy OK

Track 15

Filename C:\Exact Audio Copy\Various Artists\Australian Pop of the 70s Vol 1 Get That Jive Disc 2\15. Look After Yourself.wav

Pre-gap length 0:00:01.42

Peak level 72.4 %
Extraction speed 7.8 X
Track quality 100.0 %
Test CRC F7430536
Copy CRC F7430536
Accurately ripped (confidence 5) [071DD512] (AR v1)
Copy OK

Track 16

Filename C:\Exact Audio Copy\Various Artists\Australian Pop of the 70s Vol 1 Get That Jive Disc 2\16. Superman.wav

Pre-gap length 0:00:00.59

Peak level 88.4 %
Extraction speed 7.8 X
Track quality 100.0 %
Test CRC DD44E1AB
Copy CRC DD44E1AB
Accurately ripped (confidence 4) [DB1E12FA] (AR v1)
Copy OK

Track 17

Filename C:\Exact Audio Copy\Various Artists\Australian Pop of the 70s Vol 1 Get That Jive Disc 2\17. Who Listens to the Radio.wav

Pre-gap length 0:00:01.27

Peak level 100.0 %
Extraction speed 7.5 X
Track quality 100.0 %
Test CRC 086E8D3E
Copy CRC 086E8D3E
Accurately ripped (confidence 3) [C7996407] (AR v1)
Copy OK

Track 18

Filename C:\Exact Audio Copy\Various Artists\Australian Pop of the 70s Vol 1 Get That Jive Disc 2\18. Reach Out.wav

Pre-gap length 0:00:02.23

Peak level 61.6 %
Extraction speed 7.8 X
Track quality 99.9 %
Test CRC BE84A684
Copy CRC BE84A684
Accurately ripped (confidence 3) 161D0CC (AR v1)
Copy OK

Track 19

Filename C:\Exact Audio Copy\Various Artists\Australian Pop of the 70s Vol 1 Get That Jive Disc 2\19. Get That Jive.wav

Pre-gap length 0:00:00.53

Peak level 86.4 %
Extraction speed 7.3 X
Track quality 100.0 %
Test CRC A69C3948
Copy CRC A69C3948
Accurately ripped (confidence 3) [58E90996] (AR v1)
Copy OK

Track 20

Filename C:\Exact Audio Copy\Various Artists\Australian Pop of the 70s Vol 1 Get That Jive Disc 2\20. The Love Game.wav

Pre-gap length 0:00:01.02

Peak level 100.0 %
Extraction speed 8.9 X
Track quality 100.0 %
Test CRC 389687F6
Copy CRC 389687F6
Accurately ripped (confidence 4) [91A7E0D2] (AR v1)
Copy OK

All tracks accurately ripped

No errors occurred

End of status report

==== Log checksum 08C19D785EBA94105DE502CC420C8796C447C2ADF126B9086CB2EC22FD47A888 ====

foobar2000 1.3.7 / Dynamic Range Meter 1.1.1
log date: 2015-06-10 23:29:06

--------------------------------------------------------------------------------
Analyzed: Air Supply / Australian Pop of the 70s Vol 1 Get That Jive Disc 1 (1)
Axiom / Australian Pop of the 70s Vol 1 Get That Jive Disc 1 (2)
Bob Hudson / Australian Pop of the 70s Vol 1 Get That Jive Disc 1 (3)
Colleen Hewett / Australian Pop of the 70s Vol 1 Get That Jive Disc 1 (4)
Digby Richards / Australian Pop of the 70s Vol 1 Get That Jive Disc 1 (5)
Ferrets / Australian Pop of the 70s Vol 1 Get That Jive Disc 1 (6)
John Farnham / Australian Pop of the 70s Vol 1 Get That Jive Disc 1 (7)
Marty Rhone / Australian Pop of the 70s Vol 1 Get That Jive Disc 1 (8)
Mi-Sex / Australian Pop of the 70s Vol 1 Get That Jive Disc 1 (9)
Mississippi / Australian Pop of the 70s Vol 1 Get That Jive Disc 1 (10)
Moscos & Stone / Australian Pop of the 70s Vol 1 Get That Jive Disc 1 (11)
Rick Springfield / Australian Pop of the 70s Vol 1 Get That Jive Disc 1 (12)
Robin Jolley / Australian Pop of the 70s Vol 1 Get That Jive Disc 1 (13)
Sherbet / Australian Pop of the 70s Vol 1 Get That Jive Disc 1 (14)
Silver Studs / Australian Pop of the 70s Vol 1 Get That Jive Disc 1 (15)
Stylus / Australian Pop of the 70s Vol 1 Get That Jive Disc 1 (16)
Taylor, Matt / Australian Pop of the 70s Vol 1 Get That Jive Disc 1 (17)
The Master's Apprentices / Australian Pop of the 70s Vol 1 Get That Jive Disc 1 (18)
The Mixtures / Australian Pop of the 70s Vol 1 Get That Jive Disc 1 (19)
William Shakespeare / Australian Pop of the 70s Vol 1 Get That Jive Disc 1 (20)
--------------------------------------------------------------------------------

DR Peak RMS Duration Track
--------------------------------------------------------------------------------
DR10 -1.03 dB -13.83 dB 3:40 17-Love and Other Bruises
DR6 -2.97 dB -10.67 dB 3:18 13-My Baby's Gone
DR11 0.00 dB -15.81 dB 3:00 09-The Newcastle Song
DR11 -0.03 dB -12.61 dB 3:59 11-Superstar
DR11 -2.18 dB -14.72 dB 3:03 15-New York City
DR10 -2.43 dB -13.78 dB 3:14 05-Don't Fall in Love
DR9 -2.36 dB -12.70 dB 3:14 20-Everything Is Out of Season
DR9 -3.17 dB -13.21 dB 2:47 12-Denim & Lace
DR10 -0.24 dB -12.33 dB 4:03 03-Computer Games
DR11 0.00 dB -13.15 dB 5:04 02-Will I
DR10 0.00 dB -11.91 dB 3:07 08-Captain Captain
DR10 0.00 dB -12.15 dB 2:52 07-Speak to the Sky
DR11 -0.30 dB -12.45 dB 3:41 04-Marshall's Portable Music Machine
DR9 -0.10 dB -10.37 dB 3:37 01-Summer Love
DR12 -0.40 dB -13.69 dB 2:20 14-Happy Days
DR12 -0.19 dB -14.42 dB 3:47 18-World of Make Believe
DR9 -2.71 dB -12.88 dB 4:00 10-I Remember When I Was Young
DR11 0.00 dB -12.41 dB 3:21 06-Don't Think About Tomorrow Today
DR13 -0.30 dB -14.74 dB 2:49 19-In the Summertime
DR11 -0.30 dB -13.55 dB 3:13 16-Can't Stop Myself from Loving You
--------------------------------------------------------------------------------

Number of tracks: 20
Official DR value: DR10

Samplerate: 44100 Hz
Channels: 2
Bits per sample: 16
Bitrate: 999 kbps
Codec: FLAC
================================================================================

foobar2000 1.3.7 / Dynamic Range Meter 1.1.1
log date: 2015-06-10 23:28:25

--------------------------------------------------------------------------------
Analyzed: Allison McCallum / Australian Pop of the 70s Vol 1 Get That Jive Disc 2 (1)
Bjérre / Australian Pop of the 70s Vol 1 Get That Jive Disc 2 (2)
Bluestone / Australian Pop of the 70s Vol 1 Get That Jive Disc 2 (3)
Brian Cadd / Australian Pop of the 70s Vol 1 Get That Jive Disc 2 (4)
Cheetah / Australian Pop of the 70s Vol 1 Get That Jive Disc 2 (5)
Daddy Cool / Australian Pop of the 70s Vol 1 Get That Jive Disc 2 (6)
Dragon / Australian Pop of the 70s Vol 1 Get That Jive Disc 2 (7)
Finch / Australian Pop of the 70s Vol 1 Get That Jive Disc 2 (8)
Gene Pierson / Australian Pop of the 70s Vol 1 Get That Jive Disc 2 (9)
Hush / Australian Pop of the 70s Vol 1 Get That Jive Disc 2 (10)
Linda George / Australian Pop of the 70s Vol 1 Get That Jive Disc 2 (11)
Little River Band / Australian Pop of the 70s Vol 1 Get That Jive Disc 2 (12)
Marcia Hines / Australian Pop of the 70s Vol 1 Get That Jive Disc 2 (13)
Russell Morris / Australian Pop of the 70s Vol 1 Get That Jive Disc 2 (14)
Skyhooks / Australian Pop of the 70s Vol 1 Get That Jive Disc 2 (15)
Stars / Australian Pop of the 70s Vol 1 Get That Jive Disc 2 (16)
Supernaut / Australian Pop of the 70s Vol 1 Get That Jive Disc 2 (17)
Ted Mulry Gang / Australian Pop of the 70s Vol 1 Get That Jive Disc 2 (18)
The Sports / Australian Pop of the 70s Vol 1 Get That Jive Disc 2 (19)
Young, John Paul / Australian Pop of the 70s Vol 1 Get That Jive Disc 2 (20)
--------------------------------------------------------------------------------

DR Peak RMS Duration Track
--------------------------------------------------------------------------------
DR9 -1.07 dB -11.04 dB 2:30 16-Superman
DR10 -1.52 dB -12.61 dB 3:33 05-She Taught Me How to Love Again
DR10 -0.61 dB -12.63 dB 2:52 12-Wind and Rain
DR11 0.00 dB -15.22 dB 4:09 03-Ginger Man
DR10 0.00 dB -12.59 dB 3:50 09-Walking in the Rain
DR10 -2.20 dB -13.34 dB 4:57 13-Come Back Again
DR10 -1.26 dB -12.30 dB 2:47 19-Get That Jive
DR8 0.00 dB -11.73 dB 4:08 07-Where Were You
DR5 -4.20 dB -12.02 dB 5:17 18-Reach Out
DR8 -0.62 dB -10.43 dB 3:19 02-Glad All Over
DR9 -2.02 dB -13.11 dB 3:27 06-Neither One of Us (Wants to Be the First to Say Goodbye)
DR11 0.00 dB -12.69 dB 3:42 01-Curiosity Killed the Cat
DR7 -1.10 dB -10.71 dB 3:29 11-From the Inside
DR8 -3.02 dB -13.39 dB 3:52 14-Let's Do It
DR10 -0.10 dB -11.31 dB 3:49 04-Million Dollar Riff
DR8 -2.80 dB -12.91 dB 3:59 15-Look After Yourself
DR10 0.00 dB -12.80 dB 3:18 10-I Like It Both Ways
DR11 -0.30 dB -12.91 dB 3:26 08-Darktown Strutters' Ball
DR12 0.00 dB -12.36 dB 3:20 17-Who Listens to the Radio
DR11 0.00 dB -12.75 dB 3:30 20-The Love Game
--------------------------------------------------------------------------------

Number of tracks: 20
Official DR value: DR9

Samplerate: 44100 Hz
Channels: 2
Bits per sample: 16
Bitrate: 897 kbps
Codec: FLAC
================================================================================

password: BlondStyle
Download link:



Links are Interchangeable - No Password - Single Extraction

uploaded


Rapidgator.net
Site BBcode/HTML Code:

Tags to an Article: Various, Artists, Get, That, Jive

Dear visitor, you went to the site as unregistered user.
We recommend you Sign up or Login to website under your name.
Information
Would you like to leave your comment? Please Login to your account to leave comments. Don't have an account? You can create a free account now.