» » Andrew Hill - Dance With Death (1968) {2012 Japanese BNLT Series Remaster}



Information of news
11-06-2015, 20:15

Andrew Hill - Dance With Death (1968) {2012 Japanese BNLT Series Remaster}

Category: Music


Andrew Hill - Dance With Death (1968) {2012 Japanese BNLT Series Remaster}
Andrew Hill - Dance With Death (1968) {2012 Japanese BNLT Series Remaster}
EAC rip (secure mode) | FLAC (tracks)+CUE+LOG -> 275 Mb | MP3 @320 -> 109 Mb
Full Artwork @ 300 dpi (jpg) -> 18 Mb | 5% repair rar
© 2012 Blue Note / EMI Music Japan | TOCJ-50282
Jazz / Post Bop / Avant-Garde Jazz / Piano

"Andrew Hill's Dance of Death, recorded in 1968 with a stellar band, was not issued until 1980. In the late 1960s, Blue Note was no longer the most adventurous of jazz labels. While certain titles managed to scrape through -- Eddie Gale's Ghetto Music did but only because Francis Wollf personally financed it -- many didn't. The label was firmly in the soul-jazz groove by then, and Hill's music, always on the edge, was deemed too outside for the label's roster. Musically, this is Hill at his most visionary. From hard- and post bop frames come modal and tonal inquiries of staggering complexity."

Andrew Hill - Dance With Death (1968) {2012 Japanese BNLT Series Remaster}

"Accompanied by trumpeter Charles Tolliver, saxophonist Joe Farrell, drummer Billy Higgins and bassist Victor Sproles, Hill engages, seemingly, all of his muses at once. Check out the sinister modal blues that is "Fish 'N' Rice" with its loping Eastern-tinged blues and loping horn lines around Hill's knotty fills in the head and choruses. In "Partitions" the steaming head is so rigorously tangled it's only the counterpoint of Hill's piano that makes an exit possible, with deep blues underpinnings and strident swinging soul. The title cut dances Afro-Cuban in the head, but Hill's piano is in a minor modal groove, with Higgins playing a textural, syncopated four-four as Sproles' punches on the two and four as the solos begin winding through the modes, bringing back the blues on tags. Dance of Death is a phenomenal record, one that wears its adventure and authority well."



Personnel:
Andrew Hill - piano
Charles Tolliver - trumpet
Joe Farrell - soprano saxophone (track 1), tenor saxophone (tracks 2-7)
Victor Sproles - bass
Billy Higgins - drums

tracklist:
01 - Yellow Violet
02 - Partitions
03 - Fish 'N Rice
04 - Dance With Death
05 - Love Nocturne
06 - Black Sabbath
07 - Dance With Death (alternate take)

Exact Audio Copy V1.0 beta 3 from 29. August 2011

EAC extraction logfile from 30. December 2012, 14:25

Andrew Hill / Dance With Death

Used drive : HL-DT-STDVDRAM GT33N Adapter: 0 ID: 1

Read mode : Secure
Utilize accurate stream : Yes
Defeat audio cache : Yes
Make use of C2 pointers : No

Read offset correction : 103
Overread into Lead-In and Lead-Out : No
Fill up missing offset samples with silence : Yes
Delete leading and trailing silent blocks : No
Null samples used in CRC calculations : Yes
Used interface : Native Win32 interface for Win NT & 2000
Gap handling : Appended to previous track

Used output format : User Defined Encoder
Selected bitrate : 128 kBit/s
Quality : High
Add ID3 tag : No
Command line compressor : C:\Program Files (x86)\Exact Audio Copy\Flac\flac.exe
Additional command line options : -8 -V -T "ARTIST=%artist%" -T "TITLE=%title%" -T "ALBUM=%albumtitle%" -T "DATE=%year%" -T "TRACKNUMBER=%tracknr%" -T "TOTALTRACKS=%numtracks%" -T "GENRE=%genre%" -T "ALBUMARTIST=%albumartist%" -T "ALBUM ARTIST=%albumartist%" -T "COMMENT=EAC Secure Mode, Test & Copy, AccurateRip, FLAC -8" %source%

TOC of the extracted CD

Track | Start | Length | Start sector | End sector
---------------------------------------------------------
1 | 0:00.00 | 5:32.59 | 0 | 24958
2 | 5:32.59 | 5:51.50 | 24959 | 51333
3 | 11:24.34 | 7:31.16 | 51334 | 85174
4 | 18:55.50 | 6:39.37 | 85175 | 115136
5 | 25:35.12 | 6:44.34 | 115137 | 145470
6 | 32:19.46 | 6:24.58 | 145471 | 174328
7 | 38:44.29 | 7:10.31 | 174329 | 206609

Track 1

Filename C:\Rip\01 - Yellow Violet.wav

Pre-gap length 0:00:02.00

Peak level 97.6 %
Extraction speed 2.7 X
Track quality 100.0 %
Test CRC A67C27F8
Copy CRC A67C27F8
Track not present in AccurateRip database
Copy OK

Track 2

Filename C:\Rip\02 - Partitions.wav

Pre-gap length 0:00:02.33

Peak level 98.7 %
Extraction speed 3.2 X
Track quality 100.0 %
Test CRC 1838FFD2
Copy CRC 1838FFD2
Track not present in AccurateRip database
Copy OK

Track 3

Filename C:\Rip\03 - Fish 'N Rice.wav

Pre-gap length 0:00:02.33

Peak level 97.0 %
Extraction speed 3.4 X
Track quality 99.9 %
Test CRC F72D47A9
Copy CRC F72D47A9
Track not present in AccurateRip database
Copy OK

Track 4

Filename C:\Rip\04 - Dance With Death.wav

Pre-gap length 0:00:02.33

Peak level 97.1 %
Extraction speed 4.0 X
Track quality 100.0 %
Test CRC FBB5AA4C
Copy CRC FBB5AA4C
Track not present in AccurateRip database
Copy OK

Track 5

Filename C:\Rip\05 - Love Nocturne.wav

Pre-gap length 0:00:02.33

Peak level 96.9 %
Extraction speed 4.4 X
Track quality 100.0 %
Test CRC DB35E2EC
Copy CRC DB35E2EC
Track not present in AccurateRip database
Copy OK

Track 6

Filename C:\Rip\06 - Black Sabbath.wav

Pre-gap length 0:00:02.33

Peak level 97.2 %
Extraction speed 4.3 X
Track quality 99.9 %
Test CRC 39CC5DF9
Copy CRC 39CC5DF9
Track not present in AccurateRip database
Copy OK

Track 7

Filename C:\Rip\07 - Dance With Death (alternate take).wav

Pre-gap length 0:00:02.33

Peak level 98.1 %
Extraction speed 5.0 X
Track quality 100.0 %
Test CRC 10398223
Copy CRC 10398223
Track not present in AccurateRip database
Copy OK

None of the tracks are present in the AccurateRip database

No errors occurred

End of status report

---- CUETools DB Plugin V2.1.3

[CTDB TOCID: 1g3xE92CFPs_21jOZ6Iam2oaPRg-] disk not present in database, Submit result: 1g3xE92CFPs_21jOZ6Iam2oaPRg- has been uploaded
Download link:



Links are Interchangeable - No Password - Single Extraction

uploaded


Rapidgator.net
Site BBcode/HTML Code:

Tags to an Article: Andrew, Hill, Dance, With, Death

Dear visitor, you went to the site as unregistered user.
We recommend you Sign up or Login to website under your name.
Information
Would you like to leave your comment? Please Login to your account to leave comments. Don't have an account? You can create a free account now.