» » My Twang Guitar - The Roots of Rockabilly Lead Guitar



Information of news
11-06-2015, 00:57

My Twang Guitar - The Roots of Rockabilly Lead Guitar

Category: Tutorials

http://i72.fastpic.ru/big/2015/0610/8a/0b0d227122fbefc577ff02f57bbdc58a.jpg

My Twang Guitar - The Roots of Rockabilly Lead Guitar
DVDRip | English | AVI | 769 x 400 | MPEG-4 ~769 kbps | 25 fps
MP3 | 96 Kbps | 44.1 KHz | 2 channels | 02:03:12 | 729.1 MB
Genre: eLearning Video / Guitar lesson

My customers get a lot of satisfaction out of learning a solo they've been trying to learn all of their lives. Many of my customers are working musicians who simply don't have the time or patience to work out a guitar solo. I think it's safe to say that 99.9% of all Rockabilly songs are I/IV/V chord progressions. This program is for the guys and gals that have the rhythm down and want to get right to the solo. If it's worth about 1.50 to learn your favorite Rockabilly solo along with a high quality backing track, this program is for you!
This lesson program includes 33 classic rockabilly solos! You'll learn classic solos in the styles of Cliff Gallup, Luther Perkins, Brian Setzer, Carl Perkins, Grady Martin and more. If the rockabilly licks and tricks aren't in these solos, it ain't worth knowin'! You'll also get 25 different high quality backing tracks mastered in Izotope's Complete Mastering System. 50 lessons means 50 complete lessons of 12 bars each with 25 different backing tracks!

Solo 1 - Be-Bop-A-Lula - First Solo

Solo 2 - Be-Bop-A-Lula - Second Solo

Solo 3 - Believe What You Say

Solo 4 - Completely Sweet

Solo 5 - Crazy, Crazy Lovin'

Solo 6 - Crazy Legs - First Solo

Solo 7 - Crazy Legs - Second Solo

Solo 8 - Cruisin' - First Solo

Solo 9 - Cruisin' - Second Solo

Solo 10 - Cruisin' - Third Solo

Solo 11 - Fujiyama Mama

Solo 12 - Too Hip, Gotta Go

Solo 13 - Honey Don't

Solo 14 - Jeanie, Jeanie, Jeanie

Solo 15 - Hoy, Hoy - First Solo

Solo 16 - Hoy, Hoy - Second Solo

Solo 17 - Well, I Knocked - First Solo

Solo 18 - Well, I Knocked - Second Solo

Solo 19 - Come On, Let's Go

Solo 20 - Movie Mag

Solo 21 - Blue Suede Shoes

Solo 22 - One Hand Loose

Solo 23 - Ooby Dooby

Solo 24 - Race With The Devil - First Solo

Solo 25 - Race With The Devil - Second Solo

Solo 26 - Folsom Prison Blues

Solo 27 - Skinny Jim

Solo 28 - Black Slacks

Solo 29 - Stood Up

Solo 30 - Summertime Blues

Solo 31 - Ubangi Stomp - First Solo

Solo 32 - Ubangi Stomp - Second Solo

Solo 33 - Whole Lotta Shakin'

General
Complete name : VTS_01_4.avi
Format : AVI
Format/Info : Audio Video Interleave
File size : 172 MiB
Duration : 27mn 20s
Overall bit rate : 877 Kbps
Writing application : Lavf50.6.0

Video
ID : 0
Format : MPEG-4 Visual
Codec ID : DIV3
Codec ID/Hint : DivX 3 Low
Duration : 27mn 20s
Bit rate : 769 Kbps
Width : 640 pixels
Height : 400 pixels
Display aspect ratio : 1.600
Frame rate : 25.000 fps
Color space : YUV
Chroma subsampling : 4:2:0
Bit depth : 8 bits
Compression mode : Lossy
Bits/(Pixel*Frame) : 0.120
Stream size : 150 MiB (88%)

Audio
ID : 1
Format : MPEG Audio
Format version : Version 1
Format profile : Layer 3
Mode : Joint stereo
Mode extension : MS Stereo
Codec ID : 55
Codec ID/Hint : MP3
Duration : 27mn 20s
Bit rate mode : Constant
Bit rate : 96.0 Kbps
Channel(s) : 2 channels
Sampling rate : 44.1 KHz
Compression mode : Lossy
Stream size : 18.8 MiB (11%)
Alignment : Aligned on interleaves
Interleave, duration : 26 ms (0.65 video frame)
Interleave, preload duration : 26 ms

Screenshots

http://i69.fastpic.ru/big/2015/0610/b9/0839e814ac329bd6d799b0895db6c9b9.jpg

http://i69.fastpic.ru/big/2015/0610/58/33ecaa3b201d394f0bd04b646d5caa58.jpg

http://i70.fastpic.ru/big/2015/0610/91/ba45dbcbedaccd60119f520bf03aa191.jpg


Download link:
Links are Interchangeable - No Password - Single Extraction

uploaded


Rapidgator.net
Site BBcode/HTML Code:

Tags to an Article: Twang, Guitar, The, Roots, Rockabilly

Dear visitor, you went to the site as unregistered user.
We recommend you Sign up or Login to website under your name.
Information
Would you like to leave your comment? Please Login to your account to leave comments. Don't have an account? You can create a free account now.