» » Various Artists - Greatest Rock'N'Roll Hits of 70's (3CD, 1998)



Information of news
10-06-2015, 04:24

Various Artists - Greatest Rock'N'Roll Hits of 70's (3CD, 1998)

Category: Music

http://i70.fastpic.ru/big/2015/0610/da/1556aec1a23478b88396510b12c63bda.jpg

V.A. - Greatest Rock'N'Roll Hits of 70's (3CD, 1998)
EAC | FLAC+CUE+LOG - 780 MB | All Covers | MP3 CBR 320 Kbps - 294 MB
111:33 mins | Label: Madacy Enertainment Group # TWW-2-9040

Madacy Entertainment is a company based in Mount Royal, Quebec that publishes DVDs, CDs, and formerly VHS tapes. Many of their releases are taken from public domain sources. Despite the title, this compilation released as "Original 70's Artists" series includes the songs mostly associated with R&B, Country and Pop music.
Tracklist:

DISC ONE
01. Blues Image - Ride Captain Ride
02. Jerry Corbetta - Green Eyed Lady
03. Edison Lighthouse - Love Grows Where My Rosemary Goes
04. The Grass Roots - Temptation Eyes
05. R.B. Greaves - A Whiter Shade Of Pale
06. The Jaggerz - The Rapper
07. Mungo Jerry - In The Summertime
08. White Plains - My Baby Loves Lovin'
09. Cornelius Brothers & Sister Rose - Treat Her Like A Lady
10. Daddy Dewdrop - Chic-A-Boom (Don't Ya Jes' Love It)
11. The Fortunes - Here Comes That Rainy Day Feeling Again
12. The Grass Roots - Sooner Or Later

Exact Audio Copy V1.0 beta 3 from 29. August 2011

EAC extraction logfile from 6. June 2015, 10:17

Various / 70's Rock'N'Roll Hits

Used drive : PIONEER BD-RW BDR-TD03 Adapter: 0 ID: 1

Read mode : Secure
Utilize accurate stream : Yes
Defeat audio cache : Yes
Make use of C2 pointers : No

Read offset correction : 667
Overread into Lead-In and Lead-Out : No
Fill up missing offset samples with silence : Yes
Delete leading and trailing silent blocks : No
Null samples used in CRC calculations : Yes
Used interface : Native Win32 interface for Win NT & 2000

Used output format : User Defined Encoder
Selected bitrate : 768 kBit/s
Quality : High
Add ID3 tag : No
Command line compressor : C:\Program Files (x86)\Exact Audio Copy\FLAC\FLAC.EXE
Additional command line options : -6 -V -T "ARTIST=%artist%" -T "TITLE=%title%" -T "ALBUM=%albumtitle%" -T "DATE=%year%" -T "TRACKNUMBER=%tracknr%" -T "GENRE=%genre%" -T "COMMENT=%comment%" -T "BAND=%albuminterpret%" -T "ALBUMARTIST=%albuminterpret%" -T "COMPOSER=%composer%" %haslyrics%--tag-from-file=LYRICS="%lyricsfile%"%haslyrics% -T "DISCNUMBER=%cdnumber%" -T "TOTALDISCS=%totalcds%" -T "TOTALTRACKS=%numtracks%" %hascover%--picture="%coverfile%"%hascover% %source% -o %dest%

TOC of the extracted CD

Track | Start | Length | Start sector | End sector
---------------------------------------------------------
1 | 0:00.00 | 3:26.42 | 0 | 15491
2 | 3:26.42 | 3:24.65 | 15492 | 30856
3 | 6:51.32 | 2:33.18 | 30857 | 42349
4 | 9:24.50 | 2:36.54 | 42350 | 54103
5 | 12:01.29 | 3:50.22 | 54104 | 71375
6 | 15:51.51 | 2:41.12 | 71376 | 83462
7 | 18:32.63 | 3:36.70 | 83463 | 99732
8 | 22:09.58 | 2:34.64 | 99733 | 111346
9 | 24:44.47 | 2:44.24 | 111347 | 123670
10 | 27:28.71 | 2:56.19 | 123671 | 136889
11 | 30:25.15 | 2:50.50 | 136890 | 149689
12 | 33:15.65 | 2:19.25 | 149690 | 160139

Range status and errors

Selected range

Filename C:\Users\Deris\Desktop\rnrhi\cd1\Various - 70's Rock'N'Roll Hits.wav

Peak level 100.0 %
Extraction speed 4.2 X
Range quality 100.0 %
Test CRC 7691E2EE
Copy CRC 7691E2EE
Copy OK

No errors occurred


AccurateRip summary

Track 1 accurately ripped (confidence 1) [5D1CEEA4] (AR v2)
Track 2 accurately ripped (confidence 1) 784BEBC (AR v2)
Track 3 accurately ripped (confidence 1) [510E6EE4] (AR v2)
Track 4 accurately ripped (confidence 1) [8D92A5FA] (AR v2)
Track 5 accurately ripped (confidence 1) [A26D4EDB] (AR v2)
Track 6 accurately ripped (confidence 1) [AA1778B2] (AR v2)
Track 7 accurately ripped (confidence 1) [4621D4B6] (AR v2)
Track 8 accurately ripped (confidence 1) [EB770160] (AR v2)
Track 9 accurately ripped (confidence 1) [0A219498] (AR v2)
Track 10 accurately ripped (confidence 1) [9945051F] (AR v2)
Track 11 accurately ripped (confidence 1) [D5553382] (AR v2)
Track 12 accurately ripped (confidence 1) [80ACF7AB] (AR v2)
Download link:
Links are Interchangeable - No Password - Single Extraction

uploaded


Rapidgator.net
Site BBcode/HTML Code:

Tags to an Article: Various, Artists, Greatest, Rock, Roll

Dear visitor, you went to the site as unregistered user.
We recommend you Sign up or Login to website under your name.
Information
Would you like to leave your comment? Please Login to your account to leave comments. Don't have an account? You can create a free account now.