» » Puccini - La Boheme (Robert Dornhelm, Anna Netrebko, Rolando Villazón) (2005) [BluRay-rip]



Information of news
9-06-2015, 16:11

Puccini - La Boheme (Robert Dornhelm, Anna Netrebko, Rolando Villazón) (2005) [BluRay-rip]

Category: Music

http://i72.fastpic.ru/big/2015/0609/ad/1e15eaf338b854ac592aeeb7a4e67fad.jpg

Puccini - La Bohème (Robert Dornhelm, Anna Netrebko, Rolando Villazón) (2005) luRay-rip
Classical | BluRay-rip | AVC | MKV 1920x1080 (16:9) / 5184 kbps / 25,0 fps | 109 min | 5,05GB
Audio: Italian / DTS / 6ch / 48.0 KHz / 24 bits
Sub: German

Oscar-nominated director Robert Dornhelm lends the story a darker glow, with Bertrand de Billy's soft-centred but warm conducting and two superb star performances. Villazón as Rodolfo, less... sings with a focused intensity which at time recalls Caruso, and makes a scruffily credible hero... Netrebko's creamy-voiced Mimì is no naïve little seamstress; her scarlet satin and glamour-girl make-up suggests she's been around... but her anguish in Act III is no less heartfelt. Dornhelm's sombrely sumptuous images capture a credibly chilly, squalid, yet defiantly romantic milieu.
(BBC Music Magazine).

Cast:
Mimi - Anna Netrebko
Rodolfo - Rolando Villazón
Musetta - Nicole Cabell
Marchello - George von Bergen / voice Boaz Daniel
Shaunard - Adrian Eröd/ voice Stephane Degout
Colline - Vitaly Kovalev
The Benoît - Tiziano Brazzo
Bavarian Radio Symphony Orchestra
Conductor - Bertrand de Billy
A film by Robert Dornhelm

Video
ID : 1
Format : AVC
Format/Info : Advanced Video Codec
Format profile : [email protected]
Format settings, CABAC : Yes
Format settings, ReFrames : 2 frames
Codec ID : V_MPEG4/ISO/AVC
Duration : 1h 49mn
Bit rate : 5 184 Kbps
Width : 1 920 pixels
Height : 1 080 pixels
Display aspect ratio : 16:9
Frame rate mode : Constant
Frame rate : 25.000 fps
Color space : YUV
Chroma subsampling : 4:2:0
Bit depth : 8 bits
Scan type : Progressive
Bits/(Pixel*Frame) : 0.100
Stream size : 3.80 GiB (75%)
Writing library : x264 core 142
Encoding settings : cabac=1 / ref=1 / deblock=1:-1:-1 / analyse=0x3:0 / me=hex / subme=5 / psy=0 / mixed_ref=0 / me_range=16 / chroma_me=1 / trellis=0 / 8x8dct=1 / cqm=0 / deadzone=21,11 / fast_pskip=1 / chroma_qp_offset=0 / threads=8 / lookahead_threads=2 / sliced_threads=0 / nr=0 / decimate=1 / interlaced=0 / bluray_compat=0 / constrained_intra=0 / bframes=2 / b_pyramid=0 / b_adapt=1 / b_bias=0 / direct=1 / weightb=1 / open_gop=0 / weightp=0 / keyint=24 / keyint_min=13 / scenecut=40 / intra_refresh=0 / rc=abr / mbtree=0 / bitrate=5184 / ratetol=1.0 / qcomp=0.60 / qpmin=0 / qpmax=69 / qpstep=4 / ip_ratio=1.40 / pb_ratio=1.30 / aq=1:1.00
Default : Yes
Forced : No
Color primaries : BT.709
Transfer characteristics : BT.709
Matrix coefficients : BT.709
Color range : Limited

Audio
ID : 2
Format : DTS
Format/Info : Digital Theater Systems
Mode : 16
Format settings, Endianness : Big
Codec ID : A_DTS
Duration : 1h 49mn
Bit rate mode : Constant
Bit rate : 1 509 Kbps
Channel(s) : 6 channels
Channel positions : Front: L C R, Side: L R, LFE
Sampling rate : 48.0 KHz
Bit depth : 24 bits
Compression mode : Lossy
Stream size : 1.16 GiB (23%)
Language : Italian
Default : Yes
Forced : No

Text
ID : 3
Format : VobSub
Codec ID : S_VOBSUB
Codec ID/Info : The same subtitle format used on DVDs
Language : German
Default : Yes
Forced : No

Menu
00:00:00.000 : en:Chapter 01
00:04:43.080 : en:Chapter 02
00:10:28.559 : en:Chapter 03
00:16:50.840 : en:Chapter 04
00:21:02.400 : en:Chapter 05
00:25:41.320 : en:Chapter 06
00:30:59.200 : en:Chapter 07
00:35:48.560 : en:Chapter 08
00:39:11.000 : en:Chapter 09
00:43:42.199 : en:Chapter 10
00:51:26.320 : en:Chapter 11
00:53:53.080 : en:Chapter 12
01:03:46.840 : en:Chapter 13
01:09:29.800 : en:Chapter 14
01:18:28.479 : en:Chapter 15
01:26:35.439 : en:Chapter 16
01:32:28.520 : en:Chapter 17
01:35:34.800 : en:Chapter 18
01:41:09.000 : en:Chapter 19
01:46:33.360 : en:Chapter 20

http://i71.fastpic.ru/big/2015/0609/8b/5ebb11cd078b6771f299964245707b8b.jpg

Download link:
Links are Interchangeable - No Password - Single Extraction

uploaded


Rapidgator.net
Site BBcode/HTML Code:

Tags to an Article: Puccini, Boheme, Robert, Dornhelm, Anna

Dear visitor, you went to the site as unregistered user.
We recommend you Sign up or Login to website under your name.
Information
Would you like to leave your comment? Please Login to your account to leave comments. Don't have an account? You can create a free account now.