» » V.A. - Prog P30-34 (2015)



Information of news
5-06-2015, 09:29

V.A. - Prog P30-34 (2015)

Category: Music

http://i71.fastpic.ru/big/2015/0604/fd/c2a5b231e65b5d54ac87d1461a65a6fd.jpg

V.A. - Prog P30-34 (2015)
EAC Rip | FLAC (tracks+.cue+log) - 2,08 GB | MP3 CBR 320 kbps (LAME 3.93) - 729 MB | Covers included
Genre: Progressive Rock | RAR 3% Rec. | Label: TeamRock

Knight Area, Beardfish, Mostly Autumn, Karnataka, Brainticket, Marillion, Gong, Ozric Tentacles, Magic Pie and many more...
http://i72.fastpic.ru/big/2015/0604/7a/b9533afb7424b71e356f6e71b29e9d7a.jpg

V.A. - Prog P30: Grand Designs (2015)
EAC Rip | FLAC (tracks+.cue+log) - 431 MB | MP3 CBR 320 kbps (LAME 3.93) - 155 MB | Covers (2 MB) included
Genre: Progressive Rock | RAR 3% Rec. | Label: TeamRock (ROP52CD-01-15)

Tracklist:
01. Knight Area - The Lost World
02. The Sixxies - Waste Of Time
03. Aisles - Hero
04. Beardfish - Hold On
05. Mostly Autumn - Home
06. Luna Rossa - Fly Away
07. The Mighty Bard - Bird
08. Neon Leaves - Rites And Passage
09. Transmaniacon - City Of Chaos
10. Hammerhead - The Sin Eater

Total time: 01:05:13

Exact Audio Copy V1.0 beta 3 from 29. August 2011

EAC extraction logfile from 2. January 2015, 22:20

Various Artists / Prog - P30: Grand Designs

Used drive : ATAPI iHAS124 W Adapter: 1 ID: 0

Read mode : Secure
Utilize accurate stream : Yes
Defeat audio cache : Yes
Make use of C2 pointers : No

Read offset correction : 48
Overread into Lead-In and Lead-Out : No
Fill up missing offset samples with silence : Yes
Delete leading and trailing silent blocks : No
Null samples used in CRC calculations : Yes
Used interface : Native Win32 interface for Win NT & 2000
Gap handling : Appended to previous track

Used output format : User Defined Encoder
Selected bitrate : 896 kBit/s
Quality : High
Add ID3 tag : No
Command line compressor : C:\Program Files (x86)\FLAC Frontend\tools\flac.exe
Additional command line options : -8 -V -T "artist=%artist%" -T "albumartist=%albumartist%" -T "album=%albumtitle%" -T "title=%title%" -T "year=%year%" -T "tracknumber=%tracknr2%" -T "genre=%genre%" %source% -o %dest%

TOC of the extracted CD

Track | Start | Length | Start sector | End sector
---------------------------------------------------------
1 | 0:00.00 | 5:18.13 | 0 | 23862
2 | 5:18.13 | 3:05.52 | 23863 | 37789
3 | 8:23.65 | 8:12.00 | 37790 | 74689
4 | 16:35.65 | 7:48.54 | 74690 | 109843
5 | 24:24.44 | 4:40.69 | 109844 | 130912
6 | 29:05.38 | 4:43.12 | 130913 | 152149
7 | 33:48.50 | 6:49.08 | 152150 | 182832
8 | 40:37.58 | 6:51.15 | 182833 | 213672
9 | 47:28.73 | 7:34.13 | 213673 | 247735
10 | 55:03.11 | 10:10.14 | 247736 | 293499

Track 1

Filename F:\My Documents\My Music\Albums (Complete)\01. Knight Area - The Lost World.wav

Pre-gap length 0:00:02.00

Peak level 98.0 %
Extraction speed 4.6 X
Track quality 100.0 %
Test CRC E036661B
Copy CRC E036661B
Track not present in AccurateRip database
Copy OK

Track 2

Filename F:\My Documents\My Music\Albums (Complete)\02. The Sixxis - Waste Of Time.wav

Pre-gap length 0:00:02.00

Peak level 99.9 %
Extraction speed 4.8 X
Track quality 100.0 %
Test CRC D3425A3E
Copy CRC D3425A3E
Track not present in AccurateRip database
Copy OK

Track 3

Filename F:\My Documents\My Music\Albums (Complete)\03. Aisles - Hero.wav

Pre-gap length 0:00:02.00

Peak level 98.9 %
Extraction speed 4.9 X
Track quality 99.9 %
Test CRC D9E81A12
Copy CRC D9E81A12
Track not present in AccurateRip database
Copy OK

Track 4

Filename F:\My Documents\My Music\Albums (Complete)\04. Beardfish - Hold On.wav

Pre-gap length 0:00:02.00

Peak level 98.8 %
Extraction speed 6.7 X
Track quality 100.0 %
Test CRC A0EE22EF
Copy CRC A0EE22EF
Track not present in AccurateRip database
Copy OK

Track 5

Filename F:\My Documents\My Music\Albums (Complete)\05. Mostly Autumn - Home.wav

Pre-gap length 0:00:02.00

Peak level 98.8 %
Extraction speed 6.9 X
Track quality 100.0 %
Test CRC 7BD25B2A
Copy CRC 7BD25B2A
Track not present in AccurateRip database
Copy OK

Track 6

Filename F:\My Documents\My Music\Albums (Complete)\06. Luna Rossa - Fly Away.wav

Pre-gap length 0:00:02.00

Peak level 98.8 %
Extraction speed 5.3 X
Track quality 99.9 %
Test CRC 90C16480
Copy CRC 90C16480
Track not present in AccurateRip database
Copy OK

Track 7

Filename F:\My Documents\My Music\Albums (Complete)\07. The Mighty Bard - Bird.wav

Pre-gap length 0:00:02.00

Peak level 95.5 %
Extraction speed 7.8 X
Track quality 100.0 %
Test CRC 49245147
Copy CRC 49245147
Track not present in AccurateRip database
Copy OK

Track 8

Filename F:\My Documents\My Music\Albums (Complete)\08. Neon Leaves - Rites And The Passage.wav

Pre-gap length 0:00:02.00

Peak level 98.8 %
Extraction speed 8.3 X
Track quality 100.0 %
Test CRC 06C4B1E6
Copy CRC 06C4B1E6
Track not present in AccurateRip database
Copy OK

Track 9

Filename F:\My Documents\My Music\Albums (Complete)\09. Transmaniacon - City Of Chaos.wav

Pre-gap length 0:00:02.00

Peak level 98.8 %
Extraction speed 6.9 X
Track quality 99.9 %
Test CRC 1410A04F
Copy CRC 1410A04F
Track not present in AccurateRip database
Copy OK

Track 10

Filename F:\My Documents\My Music\Albums (Complete)\10. Hammerhead - The Sin Eater.wav

Pre-gap length 0:00:02.00

Peak level 98.8 %
Extraction speed 9.4 X
Track quality 100.0 %
Test CRC BF949B70
Copy CRC BF949B70
Track not present in AccurateRip database
Copy OK

None of the tracks are present in the AccurateRip database

No errors occurred

End of status report

==== Log checksum 7742073100FA479F00609323B6EC486337C2E84D8D037F58133759C306BDB66F ====

[CUETools log; Date: 29.05.2015 13:18:23; Version: 2.1.4]
[CTDB TOCID: watzTY7Zq.BS5sAHP7v5162x7Ac-] found.
Track | CTDB Status
1 | (8/8) Accurately ripped
2 | (8/8) Accurately ripped
3 | (8/8) Accurately ripped
4 | (8/8) Accurately ripped
5 | (8/8) Accurately ripped
6 | (8/8) Accurately ripped
7 | (8/8) Accurately ripped
8 | (8/8) Accurately ripped
9 | (8/8) Accurately ripped
10 | (8/8) Accurately ripped
[AccurateRip ID: 00166270-00b65c52-7f0f490a] disk not present in database.

Track Peak [ CRC32 ] [W/O NULL] [ LOG ]
-- 99,9 [2BB0228B] [E3951B88]
01 98,0 [E036661B] [4D5FAA42] CRC32
02 99,9 [D3425A3E] [ACF72E8C] CRC32
03 98,9 [D9E81A12] 8CBC7FB CRC32
04 98,8 [A0EE22EF] [5EEAD8EE] CRC32
05 98,8 [7BD25B2A] [E652CC49] CRC32
06 98,8 [90C16480] [D0B3121C] CRC32
07 95,5 [49245147] [7E614D95] CRC32
08 98,8 [06C4B1E6] [319E77F7] CRC32
09 98,8 [1410A04F] [10BA6A4C] CRC32
10 98,8 F949B70 70A938E CRC32



http://i71.fastpic.ru/big/2015/0604/78/596be4083c060aa5d0956b60d25a7b78.jpg

V.A. - Prog P31: The Start Of Something Beautiful (2015)
EAC Rip | FLAC (tracks+.cue+log) - 474 MB | MP3 CBR 320 kbps (LAME 3.93) - 155 MB | Covers (2 MB) included
Genre: Progressive Rock | RAR 3% Rec. | Label: TeamRock (ROP53CD-02-15)

Tracklist:
01. If These Trees Could Talk - They Speak With Knives
02. Goldray - Outloud
03. The Neal Morse Band - Agenda
04. Lonely Robot - Construct/Obstruct
05. Karnataka - Road To Cairo
06. Brainticket - Singularity
07. Mike Kershaw - Farewell
08. Warmrain - Fading Star
09. Enslaved - Thurisaz Dreaming (Edit)
10. Subversion - Novation
11. Jü & Kjetil Møster - Hassassin

Total time: 01:05:35

Exact Audio Copy V1.0 beta 3 from 29. August 2011

EAC extraction logfile from 5. February 2015, 21:17

Various Artists / Prog - P31: The Start Of Something Beautiful

Used drive : ATAPI iHAS124 W Adapter: 1 ID: 0

Read mode : Secure
Utilize accurate stream : Yes
Defeat audio cache : Yes
Make use of C2 pointers : No

Read offset correction : 48
Overread into Lead-In and Lead-Out : No
Fill up missing offset samples with silence : Yes
Delete leading and trailing silent blocks : No
Null samples used in CRC calculations : Yes
Used interface : Native Win32 interface for Win NT & 2000
Gap handling : Appended to previous track

Used output format : User Defined Encoder
Selected bitrate : 896 kBit/s
Quality : High
Add ID3 tag : No
Command line compressor : C:\Program Files (x86)\FLAC Frontend\tools\flac.exe
Additional command line options : -8 -V -T "artist=%artist%" -T "albumartist=%albumartist%" -T "album=%albumtitle%" -T "title=%title%" -T "year=%year%" -T "tracknumber=%tracknr2%" -T "genre=%genre%" %source% -o %dest%

TOC of the extracted CD

Track | Start | Length | Start sector | End sector
---------------------------------------------------------
1 | 0:00.00 | 5:43.06 | 0 | 25730
2 | 5:43.06 | 7:06.27 | 25731 | 57707
3 | 12:49.33 | 3:48.06 | 57708 | 74813
4 | 16:37.39 | 5:48.60 | 74814 | 100973
5 | 22:26.24 | 5:28.52 | 100974 | 125625
6 | 27:55.01 | 5:04.73 | 125626 | 148498
7 | 32:59.74 | 4:10.10 | 148499 | 167258
8 | 37:10.09 | 8:22.51 | 167259 | 204959
9 | 45:32.60 | 4:53.64 | 204960 | 226998
10 | 50:26.49 | 6:24.38 | 226999 | 255836
11 | 56:51.12 | 8:43.45 | 255837 | 295106

Track 1

Filename F:\My Documents\My Music\Albums (Complete)\01. If These Trees Could Talk - They Speak With Knives.wav

Pre-gap length 0:00:02.00

Peak level 98.8 %
Extraction speed 2.0 X
Track quality 100.0 %
Test CRC AB134DB2
Copy CRC AB134DB2
Track not present in AccurateRip database
Copy OK

Track 2

Filename F:\My Documents\My Music\Albums (Complete)\02. Goldray - Outloud.wav

Pre-gap length 0:00:02.00

Peak level 96.5 %
Extraction speed 2.3 X
Track quality 100.0 %
Test CRC 73FCC527
Copy CRC 73FCC527
Track not present in AccurateRip database
Copy OK

Track 3

Filename F:\My Documents\My Music\Albums (Complete)\03. The Neal Morse Band - Agenda.wav

Pre-gap length 0:00:02.00

Peak level 100.0 %
Extraction speed 2.1 X
Track quality 99.9 %
Test CRC ED32A6A4
Copy CRC ED32A6A4
Track not present in AccurateRip database
Copy OK

Track 4

Filename F:\My Documents\My Music\Albums (Complete)\04. Lonely Robot - Contruct - Obstruct.wav

Pre-gap length 0:00:02.00

Peak level 98.8 %
Extraction speed 2.7 X
Track quality 100.0 %
Test CRC C679400B
Copy CRC C679400B
Track not present in AccurateRip database
Copy OK

Track 5

Filename F:\My Documents\My Music\Albums (Complete)\05. Karnataka - Road To Cairo.wav

Pre-gap length 0:00:02.00

Peak level 98.8 %
Extraction speed 2.7 X
Track quality 99.9 %
Test CRC BBB10217
Copy CRC BBB10217
Track not present in AccurateRip database
Copy OK

Track 6

Filename F:\My Documents\My Music\Albums (Complete)\06. Brainticket - Singularity.wav

Pre-gap length 0:00:02.00

Peak level 96.8 %
Extraction speed 3.1 X
Track quality 100.0 %
Test CRC 0685F8B5
Copy CRC 0685F8B5
Track not present in AccurateRip database
Copy OK

Track 7

Filename F:\My Documents\My Music\Albums (Complete)\07. Mike Kershaw - Farewell.wav

Pre-gap length 0:00:02.00

Peak level 96.6 %
Extraction speed 3.2 X
Track quality 100.0 %
Test CRC 74C82CB8
Copy CRC 74C82CB8
Track not present in AccurateRip database
Copy OK

Track 8

Filename F:\My Documents\My Music\Albums (Complete)\08. Warmrain - Fading Star.wav

Pre-gap length 0:00:02.00

Peak level 97.7 %
Extraction speed 3.6 X
Track quality 100.0 %
Test CRC 390613D1
Copy CRC 390613D1
Track not present in AccurateRip database
Copy OK

Track 9

Filename F:\My Documents\My Music\Albums (Complete)\09. Enslaved - Thurisaz Dreaming (Edit).wav

Pre-gap length 0:00:02.00

Peak level 100.0 %
Extraction speed 3.6 X
Track quality 100.0 %
Test CRC E1C79952
Copy CRC E1C79952
Track not present in AccurateRip database
Copy OK

Track 10

Filename F:\My Documents\My Music\Albums (Complete)\10. Subversion - Novation.wav

Pre-gap length 0:00:02.00

Peak level 99.9 %
Extraction speed 3.9 X
Track quality 100.0 %
Test CRC 2E9630B3
Copy CRC 2E9630B3
Track not present in AccurateRip database
Copy OK

Track 11

Filename F:\My Documents\My Music\Albums (Complete)\11. Jü And Kjetil Møster - Hassassin.wav

Pre-gap length 0:00:02.00

Peak level 99.2 %
Extraction speed 3.9 X
Track quality 99.9 %
Test CRC 06380038
Copy CRC 06380038
Track not present in AccurateRip database
Copy OK

None of the tracks are present in the AccurateRip database

No errors occurred

End of status report

==== Log checksum A2F67E53F52BCB9760521A2BDE3BDBCC440DEB8DF24B5FC0578D46BB88E40652 ====

[CUETools log; Date: 29.05.2015 13:18:46; Version: 2.1.4]
[CTDB TOCID: AyTmU6jbCrFKfHZeOl9.DSLD5UI-] found.
Track | CTDB Status
1 | (9/9) Accurately ripped
2 | (9/9) Accurately ripped
3 | (9/9) Accurately ripped
4 | (9/9) Accurately ripped
5 | (9/9) Accurately ripped
6 | (9/9) Accurately ripped
7 | (9/9) Accurately ripped
8 | (9/9) Accurately ripped
9 | (9/9) Accurately ripped
10 | (8/9) Accurately ripped
11 | (8/9) Accurately ripped
[AccurateRip ID: 0019b03a-00df3d0b-a10f5e0b] found.
Track [ CRC | V2 ] Status
01 [f1a700c7|acf8e7f7] (1+0/1) Accurately ripped
02 [9052fbf2|a5955bb3] (1+0/1) Accurately ripped
03 [a651d63b|1fd86f75] (1+0/1) Accurately ripped
04 [936e252c|e6f56c0b] (1+0/1) Accurately ripped
05 [0ee5a3a8|7f22f6a5] (1+0/1) Accurately ripped
06 [77e678c1|d2de5c32] (1+0/1) Accurately ripped
07 [6de6f0cf|7b619fd6] (1+0/1) Accurately ripped
08 [9be41e67|1713812a] (1+0/1) Accurately ripped
09 [3a7f0680|19828d23] (1+0/1) Accurately ripped
10 [c51a6807|02a91b06] (1+0/1) Accurately ripped
11 [d71563cf|18be8e86] (1+0/1) Accurately ripped

Track Peak [ CRC32 ] [W/O NULL] [ LOG ]
-- 100,0 [E633E2F7] [CA7D0881]
01 98,8 [AB134DB2] [7EA72E4B] CRC32
02 96,5 [73FCC527] 38BB481 CRC32
03 100,0 [ED32A6A4] [E021D7C2] CRC32
04 98,8 [C679400B] [48D3071A] CRC32
05 98,8 BB10217 [04A8076F] CRC32
06 96,8 [0685F8B5] [D816C283] CRC32
07 96,6 [74C82CB8] [778AEDF3] CRC32
08 97,7 [390613D1] [32FA17FA] CRC32
09 100,0 [E1C79952] [026078A7] CRC32
10 99,9 [2E9630B3] [D44E526B] CRC32
11 99,2 [06380038] [AA0AAEBB] CRC32

http://i70.fastpic.ru/big/2015/0604/b4/6301d29d51b11831b2c3672fc8b6bdb4.jpg

V.A. - Prog P32: Lords Of The Backstage (2015)
EAC Rip | FLAC (tracks+.cue+log) - 407 MB | MP3 CBR 320 kbps (LAME 3.93) - 146 MB | Covers (2 MB) included
Genre: Progressive Rock | RAR 3% Rec. | Label: TeamRock (ROP54CD-03-15)

Tracklist:
01. The Gentle Storm - Gentle Storm
02. Marillion - Sounds That Can't Be Made
03. Aisles - The Sacrifice
04. Luna Rossa - Tiny Demons
05. Hawklords - Sonic Seven Kiss
06. Barren Earth - Frozen Processions
07. M-Opus - Travelling Man
08. The Mighty Bard - I Know
09. Ra Rising - Again
10. Magic Bus - Ballad Of Lord Sogmore

Total time: 01:01:01

Exact Audio Copy V1.0 beta 3 from 29. August 2011

EAC extraction logfile from 11. March 2015, 21:52

Various Artists / Prog P32: Lords Of The Backstage

Used drive : ATAPI iHAS124 W Adapter: 1 ID: 0

Read mode : Secure
Utilize accurate stream : Yes
Defeat audio cache : Yes
Make use of C2 pointers : No

Read offset correction : 48
Overread into Lead-In and Lead-Out : No
Fill up missing offset samples with silence : Yes
Delete leading and trailing silent blocks : No
Null samples used in CRC calculations : Yes
Used interface : Native Win32 interface for Win NT & 2000
Gap handling : Appended to previous track

Used output format : User Defined Encoder
Selected bitrate : 896 kBit/s
Quality : High
Add ID3 tag : No
Command line compressor : C:\Program Files (x86)\FLAC Frontend\tools\flac.exe
Additional command line options : -8 -V -T "artist=%artist%" -T "albumartist=%albumartist%" -T "album=%albumtitle%" -T "title=%title%" -T "year=%year%" -T "tracknumber=%tracknr2%" -T "genre=%genre%" %source% -o %dest%

TOC of the extracted CD

Track | Start | Length | Start sector | End sector
---------------------------------------------------------
1 | 0:00.00 | 6:00.57 | 0 | 27056
2 | 6:00.57 | 8:01.37 | 27057 | 63168
3 | 14:02.19 | 5:10.34 | 63169 | 86452
4 | 19:12.53 | 5:10.54 | 86453 | 109756
5 | 24:23.32 | 3:11.16 | 109757 | 124097
6 | 27:34.48 | 4:54.22 | 124098 | 146169
7 | 32:28.70 | 7:54.13 | 146170 | 181732
8 | 40:23.08 | 9:19.27 | 181733 | 223684
9 | 49:42.35 | 6:02.33 | 223685 | 250867
10 | 55:44.68 | 5:15.53 | 250868 | 274545

Track 1

Filename F:\My Documents\My Music\Albums (Complete)\01. The Gentle Storm - The Storm.wav

Pre-gap length 0:00:02.00

Peak level 98.0 %
Extraction speed 4.7 X
Track quality 100.0 %
Test CRC 7034C7A5
Copy CRC 7034C7A5
Track not present in AccurateRip database
Copy OK

Track 2

Filename F:\My Documents\My Music\Albums (Complete)\02. Marillion - Sounds That Can't Be Made (Live 2013).wav

Pre-gap length 0:00:02.00

Peak level 98.8 %
Extraction speed 5.8 X
Track quality 100.0 %
Test CRC 3B9F15E3
Copy CRC 3B9F15E3
Track not present in AccurateRip database
Copy OK

Track 3

Filename F:\My Documents\My Music\Albums (Complete)\03. Aisles - The Sacrifice.wav

Pre-gap length 0:00:02.00

Peak level 99.1 %
Extraction speed 6.2 X
Track quality 100.0 %
Test CRC 93E03968
Copy CRC 93E03968
Track not present in AccurateRip database
Copy OK

Track 4

Filename F:\My Documents\My Music\Albums (Complete)\04. Luna Rossa - Tiny Demons.wav

Pre-gap length 0:00:02.00

Peak level 98.8 %
Extraction speed 5.0 X
Track quality 99.9 %
Test CRC 752AE3D3
Copy CRC 752AE3D3
Track not present in AccurateRip database
Copy OK

Track 5

Filename F:\My Documents\My Music\Albums (Complete)\05. Hawklords - Sonic Seven Kiss.wav

Pre-gap length 0:00:02.00

Peak level 96.3 %
Extraction speed 4.4 X
Track quality 99.9 %
Test CRC 2DF3C0E9
Copy CRC 2DF3C0E9
Track not present in AccurateRip database
Copy OK

Track 6

Filename F:\My Documents\My Music\Albums (Complete)\06. Barren Earth - Frozen Processions.wav

Pre-gap length 0:00:02.00

Peak level 98.8 %
Extraction speed 7.2 X
Track quality 100.0 %
Test CRC E4D795DE
Copy CRC E4D795DE
Track not present in AccurateRip database
Copy OK

Track 7

Filename F:\My Documents\My Music\Albums (Complete)\07. M-Opus - Travelling Man.wav

Pre-gap length 0:00:02.00

Peak level 98.8 %
Extraction speed 8.1 X
Track quality 100.0 %
Test CRC 2D6397EF
Copy CRC 2D6397EF
Track not present in AccurateRip database
Copy OK

Track 8

Filename F:\My Documents\My Music\Albums (Complete)\08. The Mighty Bard - I Know.wav

Pre-gap length 0:00:02.00

Peak level 97.2 %
Extraction speed 8.7 X
Track quality 100.0 %
Test CRC 1FB45504
Copy CRC 1FB45504
Track not present in AccurateRip database
Copy OK

Track 9

Filename F:\My Documents\My Music\Albums (Complete)\09. Ra Rising - Again.wav

Pre-gap length 0:00:02.00

Peak level 98.7 %
Extraction speed 8.7 X
Track quality 100.0 %
Test CRC E4423404
Copy CRC E4423404
Track not present in AccurateRip database
Copy OK

Track 10

Filename F:\My Documents\My Music\Albums (Complete)\10. Magic Bus - Ballad Of Lord Sogmore.wav

Pre-gap length 0:00:02.00

Peak level 98.8 %
Extraction speed 6.6 X
Track quality 99.9 %
Test CRC 8A30FA8F
Copy CRC 8A30FA8F
Track not present in AccurateRip database
Copy OK

None of the tracks are present in the AccurateRip database

No errors occurred

End of status report

==== Log checksum 2D0C8FBE625D5FA4BC04E6DA00157F49A68ECE85382AA038BCF73D28E104BF74 ====

[CUETools log; Date: 29.05.2015 13:19:09; Version: 2.1.4]
[CTDB TOCID: d5edtH4biE_YRdVhXa2XpdD3dd4-] found.
Track | CTDB Status
1 | (10/10) Accurately ripped
2 | (10/10) Accurately ripped
3 | (10/10) Accurately ripped
4 | (10/10) Accurately ripped
5 | (10/10) Accurately ripped
6 | (10/10) Accurately ripped
7 | (10/10) Accurately ripped
8 | (10/10) Accurately ripped
9 | (10/10) Accurately ripped
10 | (10/10) Accurately ripped
[AccurateRip ID: 0016b2b0-00b59b10-8d0e4c0a] found.
Track [ CRC | V2 ] Status
01 [27d2ced7|6f452406] (0+3/3) Accurately ripped
02 a14647e|152aed96 (0+3/3) Accurately ripped
03 [eab9871c|78ec167e] (0+3/3) Accurately ripped
04 [13c623ab|b4b5484d] (0+3/3) Accurately ripped
05 3828aa5|e8ff505c (0+3/3) Accurately ripped
06 [033b7c12|0fb99c69] (0+3/3) Accurately ripped
07 6c4d313|437f363b (0+3/3) Accurately ripped
08 [df2a24d0|568bae3d] (0+3/3) Accurately ripped
09 [8c35ccd1|0d476882] (0+3/3) Accurately ripped
10 [5e7c4777|ddc152d2] (0+3/3) Accurately ripped

Track Peak [ CRC32 ] [W/O NULL] [ LOG ]
-- 99,1 [66E41D89] [A277F46B]
01 98,0 [7034C7A5] [8ACE7293] CRC32
02 98,8 [3B9F15E3] [24A6AC3A] CRC32
03 99,1 [93E03968] [85BC7617] CRC32
04 98,8 [752AE3D3] [6C29780B] CRC32
05 96,3 [2DF3C0E9] [C5BA6A66] CRC32
06 98,8 [E4D795DE] [750F5506] CRC32
07 98,8 [2D6397EF] [2505CD3E] CRC32
08 97,2 [1FB45504] 11FEAF4 CRC32
09 98,7 [E4423404] [CE0D052A] CRC32
10 98,8 [8A30FA8F] [7292B5CC] CRC32

http://i72.fastpic.ru/big/2015/0604/23/8c2aa82476241088140260492aa20a23.jpg

V.A. - Prog P33: The Great Marsh (2015)
EAC Rip | FLAC (tracks+.cue+log) - 367 MB | MP3 CBR 320 kbps (LAME 3.93) - 134 MB | Covers (2 MB) included
Genre: Progressive Rock | RAR 3% Rec. | Label: TeamRock (ROP55CD-04-15)

Tracklist:
01. The Tangent - A Spark In The Aether
02. Gong - Tried So Hard
03. M-Opus - Different Skies (Excerpt), Every Day The Orbit
04. Gavin Harrison - Hatesong, Halo
05. Von Hertzen Brothers - Love Burns
06. Sanguine Hum - Out Of Mind
07. Rian Adkinson - Pianoburn
08. The Gentle Storm - Shores Of India (Gentle Version)
09. Special Providence - Kiss From A Glacier
10. The Last Embrace - On My Own

Total time: 56:07

Exact Audio Copy V1.0 beta 3 from 29. August 2011

EAC extraction logfile from 22. April 2015, 21:59

Various Artists / Prog P33: The Great Marsh

Used drive : ATAPI iHAS124 W Adapter: 1 ID: 0

Read mode : Secure
Utilize accurate stream : Yes
Defeat audio cache : Yes
Make use of C2 pointers : No

Read offset correction : 48
Overread into Lead-In and Lead-Out : No
Fill up missing offset samples with silence : Yes
Delete leading and trailing silent blocks : No
Null samples used in CRC calculations : Yes
Used interface : Native Win32 interface for Win NT & 2000
Gap handling : Appended to previous track

Used output format : User Defined Encoder
Selected bitrate : 896 kBit/s
Quality : High
Add ID3 tag : No
Command line compressor : C:\Program Files (x86)\FLAC Frontend\tools\flac.exe
Additional command line options : -8 -V -T "artist=%artist%" -T "albumartist=%albumartist%" -T "album=%albumtitle%" -T "title=%title%" -T "year=%year%" -T "tracknumber=%tracknr2%" -T "genre=%genre%" %source% -o %dest%

TOC of the extracted CD

Track | Start | Length | Start sector | End sector
---------------------------------------------------------
1 | 0:00.00 | 4:20.13 | 0 | 19512
2 | 4:20.13 | 4:38.62 | 19513 | 40424
3 | 8:59.00 | 5:23.00 | 40425 | 64649
4 | 14:22.00 | 8:18.54 | 64650 | 102053
5 | 22:40.54 | 4:48.10 | 102054 | 123663
6 | 27:28.64 | 5:54.24 | 123664 | 150237
7 | 33:23.13 | 3:45.13 | 150238 | 167125
8 | 37:08.26 | 6:42.32 | 167126 | 197307
9 | 43:50.58 | 4:40.13 | 197308 | 218320
10 | 48:30.71 | 7:36.32 | 218321 | 252552

Track 1

Filename F:\My Documents\My Music\Albums (Complete)\01. The Tangent - A Spark In The Aether.wav

Pre-gap length 0:00:02.00

Peak level 96.6 %
Extraction speed 4.5 X
Track quality 100.0 %
Test CRC 5CE52886
Copy CRC 5CE52886
Track not present in AccurateRip database
Copy OK

Track 2

Filename F:\My Documents\My Music\Albums (Complete)\02. Gong - Tried So Hard.wav

Pre-gap length 0:00:02.00

Peak level 98.8 %
Extraction speed 5.1 X
Track quality 100.0 %
Test CRC A28F5A2B
Copy CRC A28F5A2B
Track not present in AccurateRip database
Copy OK

Track 3

Filename F:\My Documents\My Music\Albums (Complete)\03. M-Opus - Different Skies (Excerpt), Every Day The Orbit.wav

Pre-gap length 0:00:02.00

Peak level 98.8 %
Extraction speed 4.4 X
Track quality 99.9 %
Test CRC FFADEFDC
Copy CRC FFADEFDC
Track not present in AccurateRip database
Copy OK

Track 4

Filename F:\My Documents\My Music\Albums (Complete)\04. Gavin Harrison - Hatesong, Halo.wav

Pre-gap length 0:00:02.00

Peak level 100.0 %
Extraction speed 6.6 X
Track quality 100.0 %
Test CRC 0CEED00D
Copy CRC 0CEED00D
Track not present in AccurateRip database
Copy OK

Track 5

Filename F:\My Documents\My Music\Albums (Complete)\05. Von Hertzen Brothers - Love Burns.wav

Pre-gap length 0:00:02.00

Peak level 98.8 %
Extraction speed 5.0 X
Track quality 99.9 %
Test CRC 7278CCD3
Copy CRC 7278CCD3
Track not present in AccurateRip database
Copy OK

Track 6

Filename F:\My Documents\My Music\Albums (Complete)\06. Sanguine Hum - Out Of Mind.wav

Pre-gap length 0:00:02.00

Peak level 98.8 %
Extraction speed 7.5 X
Track quality 100.0 %
Test CRC 7F953FD7
Copy CRC 7F953FD7
Track not present in AccurateRip database
Copy OK

Track 7

Filename F:\My Documents\My Music\Albums (Complete)\07. Rian Adkinson - Pianoburn.wav

Pre-gap length 0:00:02.00

Peak level 99.8 %
Extraction speed 7.4 X
Track quality 100.0 %
Test CRC B3EEDA45
Copy CRC B3EEDA45
Track not present in AccurateRip database
Copy OK

Track 8

Filename F:\My Documents\My Music\Albums (Complete)\08. The Gentle Storm - Shores Of India (Gentle Version).wav

Pre-gap length 0:00:02.00

Peak level 98.0 %
Extraction speed 8.2 X
Track quality 100.0 %
Test CRC B1D23A40
Copy CRC B1D23A40
Track not present in AccurateRip database
Copy OK

Track 9

Filename F:\My Documents\My Music\Albums (Complete)\09. Special Providence - Kiss From A Glacier.wav

Pre-gap length 0:00:02.00

Peak level 97.8 %
Extraction speed 6.0 X
Track quality 99.9 %
Test CRC F303FB26
Copy CRC F303FB26
Track not present in AccurateRip database
Copy OK

Track 10

Filename F:\My Documents\My Music\Albums (Complete)\10. The Last Embrace - On My Own.wav

Pre-gap length 0:00:02.00

Peak level 98.8 %
Extraction speed 9.0 X
Track quality 100.0 %
Test CRC 970E68DF
Copy CRC 970E68DF
Track not present in AccurateRip database
Copy OK

None of the tracks are present in the AccurateRip database

No errors occurred

End of status report

==== Log checksum BAA9E4BBCAE2B3746ADA6D0168991D5D4324F12D9E3844A7E226FDBBC03B0E8D ====

[CUETools log; Date: 29.05.2015 13:19:29; Version: 2.1.4]
[CTDB TOCID: x6MsGxU2MNYZewqZ7dcmRjzGKA4-] found.
Track | CTDB Status
1 | (7/7) Accurately ripped
2 | (7/7) Accurately ripped
3 | (7/7) Accurately ripped
4 | (7/7) Accurately ripped
5 | (7/7) Accurately ripped
6 | (7/7) Accurately ripped
7 | (7/7) Accurately ripped
8 | (7/7) Accurately ripped
9 | (7/7) Accurately ripped
10 | (7/7) Accurately ripped
[AccurateRip ID: 0014622c-00a4bf5f-690d270a] disk not present in database.

Track Peak [ CRC32 ] [W/O NULL] [ LOG ]
-- 100,0 [6D63236C] [8FC9C09D]
01 96,6 [5CE52886] [E829C6B2] CRC32
02 98,8 [A28F5A2B] [C7E25268] CRC32
03 98,8 [FFADEFDC] [68E03E2E] CRC32
04 100,0 [0CEED00D] [1D04E9DB] CRC32
05 98,8 [7278CCD3] DACEE8C CRC32
06 98,8 [7F953FD7] [97AEE4E7] CRC32
07 99,8 3EEDA45 [8230BEFB] CRC32
08 98,0 1D23A40 [F5D3DE42] CRC32
09 97,8 [F303FB26] [7161DBD8] CRC32
10 98,8 [970E68DF] [12B15F38] CRC32

http://i71.fastpic.ru/big/2015/0604/d5/c870a20ad0ebe148aee6e3806a6baad5.jpg

V.A. - Prog P34: The Chamber Of 32 Doors (2015)
EAC Rip | FLAC (tracks+.cue+log) - 401 MB | MP3 CBR 320 kbps (LAME 3.93) - 139 MB | Covers (2 MB) included
Genre: Progressive Rock | RAR 3% Rec. | Label: TeamRock (ROP56CD-06-15)

Tracklist:
01. Ozric Tentacles - Changa Masala
02. David Cross and Robert Fripp - Sure Of The Dark
03. Galley Beggar - Adam And Eve
04. Sweet Billy Pilgrim - Coloma Blues
05. Karnataka - Because Of You
06. Native Construct - Mute
07. Metallic Taste Of Blood - Ipsissimus
08. Magic Pie - According To Plan
09. Arcane - Keeping Stone, Sound On Fire
10. Lorenzo Feliciati - Noir Alley Verdigris

Total time: 58:23

Exact Audio Copy V1.0 beta 3 from 29. August 2011

EAC extraction logfile from 28. May 2015, 10:40

Various Artists / Prog P34: The Chamber Of 32 Doors

Used drive : ATAPI iHAS124 W Adapter: 1 ID: 0

Read mode : Secure
Utilize accurate stream : Yes
Defeat audio cache : Yes
Make use of C2 pointers : No

Read offset correction : 48
Overread into Lead-In and Lead-Out : No
Fill up missing offset samples with silence : Yes
Delete leading and trailing silent blocks : No
Null samples used in CRC calculations : Yes
Used interface : Native Win32 interface for Win NT & 2000
Gap handling : Appended to previous track

Used output format : User Defined Encoder
Selected bitrate : 896 kBit/s
Quality : High
Add ID3 tag : No
Command line compressor : C:\Program Files (x86)\FLAC Frontend\tools\flac.exe
Additional command line options : -8 -V -T "artist=%artist%" -T "albumartist=%albumartist%" -T "album=%albumtitle%" -T "title=%title%" -T "year=%year%" -T "tracknumber=%tracknr2%" -T "genre=%genre%" %source% -o %dest%

TOC of the extracted CD

Track | Start | Length | Start sector | End sector
---------------------------------------------------------
1 | 0:00.00 | 6:05.11 | 0 | 27385
2 | 6:05.11 | 3:55.58 | 27386 | 45068
3 | 10:00.69 | 5:37.08 | 45069 | 70351
4 | 15:38.02 | 5:20.07 | 70352 | 94358
5 | 20:58.09 | 4:55.31 | 94359 | 116514
6 | 25:53.40 | 6:23.36 | 116515 | 145275
7 | 32:17.01 | 4:54.18 | 145276 | 167343
8 | 37:11.19 | 6:33.53 | 167344 | 196871
9 | 43:44.72 | 9:24.32 | 196872 | 239203
10 | 53:09.29 | 5:13.57 | 239204 | 262735

Track 1

Filename F:\My Documents\My Music\Albums (Complete)\01. Ozric Tentacles - Changa Masala.wav

Pre-gap length 0:00:02.00

Peak level 100.0 %
Extraction speed 4.8 X
Track quality 100.0 %
Test CRC 67BB5AB4
Copy CRC 67BB5AB4
Track not present in AccurateRip database
Copy OK

Track 2

Filename F:\My Documents\My Music\Albums (Complete)\02. David Cross and Robert Fripp - Sure Of The Dark.wav

Pre-gap length 0:00:02.00

Peak level 98.8 %
Extraction speed 5.2 X
Track quality 100.0 %
Test CRC E2E4D22C
Copy CRC E2E4D22C
Track not present in AccurateRip database
Copy OK

Track 3

Filename F:\My Documents\My Music\Albums (Complete)\03. Galley Beggar - Adam And Eve.wav

Pre-gap length 0:00:02.00

Peak level 98.8 %
Extraction speed 5.9 X
Track quality 100.0 %
Test CRC 7AE27FC4
Copy CRC 7AE27FC4
Track not present in AccurateRip database
Copy OK

Track 4

Filename F:\My Documents\My Music\Albums (Complete)\04. Sweet Billy Pilgrim - Coloma Blues.wav

Pre-gap length 0:00:02.00

Peak level 98.0 %
Extraction speed 6.4 X
Track quality 100.0 %
Test CRC DD3478C5
Copy CRC DD3478C5
Track not present in AccurateRip database
Copy OK

Track 5

Filename F:\My Documents\My Music\Albums (Complete)\05. Karnataka - Because Of You.wav

Pre-gap length 0:00:02.00

Peak level 98.8 %
Extraction speed 6.8 X
Track quality 100.0 %
Test CRC 14CED0DE
Copy CRC 14CED0DE
Track not present in AccurateRip database
Copy OK

Track 6

Filename F:\My Documents\My Music\Albums (Complete)\06. Native Construct - Mute.wav

Pre-gap length 0:00:02.00

Peak level 98.8 %
Extraction speed 5.8 X
Track quality 99.9 %
Test CRC 3AFD6CD2
Copy CRC 3AFD6CD2
Track not present in AccurateRip database
Copy OK

Track 7

Filename F:\My Documents\My Music\Albums (Complete)\07. Metallic Taste Of Blood - Ipsissimus.wav

Pre-gap length 0:00:02.00

Peak level 99.1 %
Extraction speed 7.7 X
Track quality 100.0 %
Test CRC BFADDF1C
Copy CRC BFADDF1C
Track not present in AccurateRip database
Copy OK

Track 8

Filename F:\My Documents\My Music\Albums (Complete)\08. Magic Pie - According To Plan.wav

Pre-gap length 0:00:02.00

Peak level 98.8 %
Extraction speed 6.5 X
Track quality 99.9 %
Test CRC 89D4E244
Copy CRC 89D4E244
Track not present in AccurateRip database
Copy OK

Track 9

Filename F:\My Documents\My Music\Albums (Complete)\09. Arcane - Keeping Stone, Sound On Fire.wav

Pre-gap length 0:00:02.00

Peak level 98.2 %
Extraction speed 9.0 X
Track quality 100.0 %
Test CRC 57F738BF
Copy CRC 57F738BF
Track not present in AccurateRip database
Copy OK

Track 10

Filename F:\My Documents\My Music\Albums (Complete)\10. Lorenzo Feliciati - Noir Alley Verdigris.wav

Pre-gap length 0:00:02.00

Peak level 100.0 %
Extraction speed 6.6 X
Track quality 99.9 %
Test CRC 7A9F44D8
Copy CRC 7A9F44D8
Track not present in AccurateRip database
Copy OK

None of the tracks are present in the AccurateRip database

No errors occurred

End of status report

==== Log checksum BA06E5DB29F3F5C82D184E3277C011CBE7E9CFBEBCBF33C031E45D2B2C7CEE02 ====

[CUETools log; Date: 29.05.2015 13:19:56; Version: 2.1.4]
[CTDB TOCID: rh30FWBAAGvPyM4oNARbadKy65E-] found.
Track | CTDB Status
1 | (2/2) Accurately ripped
2 | (2/2) Accurately ripped
3 | (2/2) Accurately ripped
4 | (2/2) Accurately ripped
5 | (2/2) Accurately ripped
6 | (2/2) Accurately ripped
7 | (2/2) Accurately ripped
8 | (2/2) Accurately ripped
9 | (2/2) Accurately ripped
10 | (2/2) Accurately ripped
[AccurateRip ID: 0014d479-00a8a3a5-7e0daf0a] disk not present in database.

Track Peak [ CRC32 ] [W/O NULL] [ LOG ]
-- 100,0 [D0CBE686] [07519115]
01 100,0 [67BB5AB4] [81301703] CRC32
02 98,8 [E2E4D22C] [CF783E52] CRC32
03 98,8 [7AE27FC4] [E1339197] CRC32
04 98,0 [DD3478C5] [24BE4BC6] CRC32
05 98,8 [14CED0DE] [E113CC7E] CRC32
06 98,8 [3AFD6CD2] [4BA3034D] CRC32
07 99,1 FADDF1C [928AA9D5] CRC32
08 98,8 [89D4E244] [CBDCC644] CRC32
09 98,2 [57F738BF] [008D6E29] CRC32
10 99,9 [7A9F44D8] [80479E88] CRC32
Download link:
Links are Interchangeable - No Password - Single Extraction

uploaded


Rapidgator.net
Site BBcode/HTML Code:

Tags to an Article: Prog, P30, 2015

Dear visitor, you went to the site as unregistered user.
We recommend you Sign up or Login to website under your name.
Information
Would you like to leave your comment? Please Login to your account to leave comments. Don't have an account? You can create a free account now.