» » Chain - Two Of A Kind (1973) [Reissue 1997]



Information of news
4-06-2015, 18:18

Chain - Two Of A Kind (1973) [Reissue 1997]

Category: Music

Chain - Two Of A Kind (1973) [Reissue 1997]

Chain - Two Of A Kind (1973) [Reissue 1997]
EAC Rip | FLAC: Tracks+Cue+Log | 324 Mb | MP3 CBR 320 kbps | 149 Mb | Scans | Time: 41:57
Genre: Blues Rock, Harmonica Blues | Label: Mushroom Records | Cat.№: MUSH32034.2

"Two Of A Kind was a comparatively low-key affair by Chain's standards. Of the four cuts featuring Madison and Beauford from Muddy's band, only the title track (written by Madison) and Little Walter's "Blues With A Feeling" provide any real excitement, despite the typically robust backing that Chain supplies. And some observers at the time found "Elephant" tediously self-indulgent. The album sold in only moderate numbers and by the time of its release in December, Chain had undergone further personnel shifts, Little Goose being the first to leave. He went on to considerable success with the Kevin Borich Express and later formed his own eponymous outfit. His replacement, Tony Lunt, was formerly drummer for Carson and Alta Mira, and he brought his bandmate, the in-demand keyboardist Mal Logan with him."

Track Listing

01. Two Of A Kind (04:45)
02. Reconsider, Baby (04:40)
03. Everybody Has To Lose Sometime (08:23)
04. Blues With A Feeling (04:48)
05. How To Set Fire To An Elephant (Live) (19:23)

Produced by the Chain & Michael Gudinski

The Band

* Phil Manning - Guitar, Vocals
* Barry Sullivan - Bass
* Barry Harvey - Drums
* Ian Clyne - Keyboards
* Mal Capewell - Sax, Flute

with

* James "Peewee" Madison - Guitar, Vocals
* George "Mojo" Beauford - Vocals, Harmonica

Notes

Tracks 1-4 recorded at TCS Sudios, May 9th, 1973
Track 5 recorded live at Garrison Disco, June 7th, 1973, Special effects added.

Exact Audio Copy V0.99 prebeta 4 from 23. January 2008

EAC extraction logfile from 20. September 2012, 2:41

Chain / Two of a Kind

Used drive : HL-DT-STDVD-RAM GSA-H58N Adapter: 0 ID: 0

Read mode : Secure
Utilize accurate stream : Yes
Defeat audio cache : Yes
Make use of C2 pointers : No

Read offset correction : 102
Overread into Lead-In and Lead-Out : No
Fill up missing offset samples with silence : Yes
Delete leading and trailing silent blocks : No
Null samples used in CRC calculations : Yes
Used interface : Installed external ASPI interface
Gap handling : Appended to previous track

Used output format : User Defined Encoder
Selected bitrate : 1024 kBit/s
Quality : High
Add ID3 tag : No
Command line compressor : C:\Arquivos de programas\Exact Audio Copy\Flac\flac.exe
Additional command line options : -8 -A tukey(0.25) -A gauss(0.1875) -b 4096 -V -T "artist=%a" -T "title=%t" -T "album=%g" -T "date=%y" -T "tracknumber=%n" -T "genre=%m" %s --sector-align

TOC of the extracted CD

Track | Start | Length | Start sector | End sector
---------------------------------------------------------
1 | 0:00.00 | 4:44.10 | 0 | 21309
2 | 4:44.10 | 4:39.60 | 21310 | 42294
3 | 9:23.70 | 8:22.52 | 42295 | 79996
4 | 17:46.47 | 4:47.48 | 79997 | 101569
5 | 22:34.20 | 19:22.00 | 101570 | 188719

Track 1

Filename C:\Documents and Settings\Nelson\Meus documentos\My EAC\01 - Chain - Two of a kind.wav

Pre-gap length 0:00:02.00

Peak level 100.0 %
Track quality 100.0 %
Test CRC 10362088
Copy CRC 10362088
Copy OK

Track 2

Filename C:\Documents and Settings\Nelson\Meus documentos\My EAC\02 - Chain - Reconsider, Baby.wav

Peak level 100.0 %
Track quality 100.0 %
Test CRC 08CB376F
Copy CRC 08CB376F
Copy OK

Track 3

Filename C:\Documents and Settings\Nelson\Meus documentos\My EAC\03 - Chain - Everybody has to lose sometime.wav

Pre-gap length 0:00:01.80

Peak level 100.0 %
Track quality 99.7 %
Test CRC 16272F80
Copy CRC 16272F80
Copy OK

Track 4

Filename C:\Documents and Settings\Nelson\Meus documentos\My EAC\04 - Chain - Blues with a feeling.wav

Peak level 100.0 %
Track quality 100.0 %
Test CRC 8CDC6CEE
Copy CRC 8CDC6CEE
Copy OK

Track 5

Filename C:\Documents and Settings\Nelson\Meus documentos\My EAC\05 - Chain - How to set fire to an elephant.wav

Pre-gap length 0:00:01.20

Peak level 100.0 %
Track quality 99.9 %
Test CRC 054C8404
Copy CRC 054C8404
Copy OK

No errors occurred

End of status report

Many thanks to the original uploader: Nelwizard
Download link:



Links are Interchangeable - No Password - Single Extraction

uploaded


Rapidgator.net
Site BBcode/HTML Code:

Tags to an Article: Chain, Two, Kind, 1973, Reissue

Dear visitor, you went to the site as unregistered user.
We recommend you Sign up or Login to website under your name.
Information
Would you like to leave your comment? Please Login to your account to leave comments. Don't have an account? You can create a free account now.