» » George 'Harmonica' Smith - Now You Can Talk About Me (1998)



Information of news
4-06-2015, 13:30

George 'Harmonica' Smith - Now You Can Talk About Me (1998)

Category: Music

George 'Harmonica' Smith - Now You Can Talk About Me (1998)

George 'Harmonica' Smith - Now You Can Talk About Me (1998)
EAC | FLAC | Image (Cue&Log) ~ 259 Mb (incl 5%) | Mp3 (CBR320) ~ 128 Mb (incl 5%) | Scans included
Genre: Harmonica Blues, Electric Blues | Label: Blind Pig Records | # BP-5049 | Time: 00:45:42

"Now You Can Talk About Me collects mid- and late-period Smith, with the harmonica genius' '60s sides for the microscopic imprint Sotoplay sampled on the first five cuts. The remainder of the album is from a 1982 session for the Murray Brothers label with Rod Piazza behind the board, which produced the Boogie'n with George album. Also included are the previously unreleased "Last Chance" and a powerful instrumental slow-burner. Junior Watson shines on guitar on these tracks and Smith's tone is big, fat, rich, and full of ideas galore on tunes like "Bad Start," "Astatic Stomp," "Sunbird," and the title track. But Smith's use of a chromatic harp will strike most blues mavens as something unique and out of the ordinary, as he tackles such standards as "I Left My Heart in San Francisco" and "Peg o' My Heart" with considerable élan, imparting both with a bluesy feel that Jerry Murad & the Harmonicats could only envision. If you like great blues harmonica playing, you're going to love Now You Can Talk About Me. Add Smith's name to the list of all-time greats near the top with this one."

Review by Cub Koda, Allmusic.com


Tracklist:

01. Blowing the Blues (04:17)
02. Yes, Baby (02:15)
03. Tight Dress (02:33)
04. Times Won't Be Hard Always (02:29)
05. Good Things (02:50)
06. Goin' Down Slow (03:35)
07. Last Chance (04:08)
08. Boogie'n With Geogre (02:18)
09. Bad Start (04:20)
10. Astatic Stomp (03:58)
11. I Left My Heart in San Francisco (03:07)
12. Sunbird (02:11)
13. Chicago City (04:33)
14. Peg O My Heart (03:03)


Exact Audio Copy V0.99 prebeta 5 from 4. May 2009

EAC extraction logfile from 19. September 2010, 14:55

George "Harmonica" Smith / Now You Can Talk About Me

Used drive : HL-DT-STDVD-RAM GH22NP20 Adapter: 0 ID: 0

Read mode : Secure
Utilize accurate stream : Yes
Defeat audio cache : Yes
Make use of C2 pointers : No

Read offset correction : 102
Overread into Lead-In and Lead-Out : No
Fill up missing offset samples with silence : Yes
Delete leading and trailing silent blocks : No
Null samples used in CRC calculations : Yes
Used interface : Native Win32 interface for Win NT & 2000

Used output format : User Defined Encoder
Selected bitrate : 32 kBit/s
Quality : High
Add ID3 tag : No
Command line compressor : C:\Program Files\FLAC\flac.exe
Additional command line options : -8 -V -T "ARTIST=%a" -T "TITLE=%t" -T "ALBUM=%g" -T "DATE=%y" -T "TRACKNUMBER=%n" -T "GENRE=%m" -T "COMMENT=EAC FLAC -8" %s

TOC of the extracted CD

Track | Start | Length | Start sector | End sector
---------------------------------------------------------
1 | 0:00.00 | 4:17.27 | 0 | 19301
2 | 4:17.27 | 2:15.05 | 19302 | 29431
3 | 6:32.32 | 2:33.48 | 29432 | 40954
4 | 9:06.05 | 2:29.20 | 40955 | 52149
5 | 11:35.25 | 2:50.50 | 52150 | 64949
6 | 14:26.00 | 3:35.12 | 64950 | 81086
7 | 18:01.12 | 4:08.28 | 81087 | 99714
8 | 22:09.40 | 2:18.45 | 99715 | 110109
9 | 24:28.10 | 4:20.67 | 110110 | 129676
10 | 28:49.02 | 3:58.40 | 129677 | 147566
11 | 32:47.42 | 3:07.05 | 147567 | 161596
12 | 35:54.47 | 2:11.15 | 161597 | 171436
13 | 38:05.62 | 4:33.05 | 171437 | 191916
14 | 42:38.67 | 3:03.50 | 191917 | 205691

Range status and errors

Selected range

Filename C:\pmx222\George Harmonica Smith - Now You Can Talk About Me.wav

Peak level 99.1 %
Range quality 100.0 %
Test CRC 5B0A06E0
Copy CRC 5B0A06E0
Copy OK

No errors occurred


AccurateRip summary

Track 1 accurately ripped (confidence 2) 7205DC5
Track 2 accurately ripped (confidence 2) EEDC68A
Track 3 accurately ripped (confidence 2) [FE9B50C7]
Track 4 accurately ripped (confidence 2) [45453C48]
Track 5 accurately ripped (confidence 2) [3CD40249]
Track 6 accurately ripped (confidence 2) [33C8ECA9]
Track 7 accurately ripped (confidence 2) [0F89789D]
Track 8 accurately ripped (confidence 2) 7B02EBE
Track 9 accurately ripped (confidence 2) [5CCD7D1A]
Track 10 accurately ripped (confidence 2) [0B45DAB2]
Track 11 accurately ripped (confidence 2) [E2C9D60E]
Track 12 accurately ripped (confidence 2) [788E3377]
Track 13 accurately ripped (confidence 2) [C2CCEA34]
Track 14 accurately ripped (confidence 2) [A1B38F19]

All tracks accurately ripped

End of status report

foobar2000 1.3.8 / Dynamic Range Meter 1.1.1
log date: 2015-06-03 19:50:44

--------------------------------------------------------------------------------
Analyzed: George 'Harmonica' Smith / Now You Can Talk About Me
--------------------------------------------------------------------------------

DR Peak RMS Duration Track
--------------------------------------------------------------------------------
DR10 -2.37 dB -14.08 dB 4:17 01-Blowing the Blues
DR10 -2.52 dB -13.88 dB 2:15 02-Yes, Baby
DR9 -1.00 dB -12.78 dB 2:34 03-Tight Dress
DR11 -1.50 dB -15.54 dB 2:29 04-Times Won't Be Hard Always
DR13 -0.18 dB -15.87 dB 2:51 05-Good Things
DR10 -1.00 dB -13.00 dB 3:35 06-Goin' Down Slow
DR12 -0.07 dB -15.36 dB 4:08 07-Last Chance
DR10 -0.46 dB -12.64 dB 2:19 08-Boogie'n With Geogre
DR11 -0.50 dB -14.83 dB 4:21 09-Bad Start
DR9 -1.00 dB -12.19 dB 3:59 10-Astatic Stomp
DR11 -0.12 dB -14.95 dB 3:07 11-I Left My Heart in San Francisco
DR10 -2.46 dB -14.37 dB 2:11 12-Sunbird
DR11 -0.17 dB -14.70 dB 4:33 13-Chicago City
DR13 -0.42 dB -16.48 dB 3:04 14-Peg O My Heart
--------------------------------------------------------------------------------

Number of tracks: 14
Official DR value: DR11

Samplerate: 44100 Hz
Channels: 2
Bits per sample: 16
Bitrate: 702 kbps
Codec: FLAC
================================================================================

Password: designol
Download link:



Links are Interchangeable - No Password - Single Extraction

uploaded


Rapidgator.net
Site BBcode/HTML Code:

Tags to an Article: George, Harmonica, Smith, Now, You

Dear visitor, you went to the site as unregistered user.
We recommend you Sign up or Login to website under your name.
Information
Would you like to leave your comment? Please Login to your account to leave comments. Don't have an account? You can create a free account now.