» » » Fundamentals of Ericksonian Hypnotherapy

Information of news
31-05-2015, 19:52

Fundamentals of Ericksonian Hypnotherapy

Category: Tutorials » Other


Fundamentals of Ericksonian Hypnotherapy
DVDRip | English | AVI/XviD 29.970 fps 914 Kbps | 480x352 | MP3 128 Kbps 48.0 khz | 9h 45mn | 3.42 GB
Genre: Video Training, Hypnosis

Lecture, demonstration and practice workshop go step-by-step through the phases of trance induction. Differences between well-known methods are explained.
Fundamental Hypnosis - Level 2
Ideodynamic Approaches to Therapeutic Hypnosis
Ernest Rossi, Ph.D.
Group and individual demonstrations of basic ideodynamic approaches to therapeutic hypnosis utilizing Rossi's innovative activity-dependent work with hand signaling.

Fundamental Hypnosis - Level 3
Getting a Good Trance Going
Betty Alice Erickson, M.S., LPC
Various trance inductions are demonstrated with volunteers. Each induction is discussed with indications for its uses. Differences between formal and conversational trances are demonstrated with rationales for choosing each.

Fundamental Hypnosis - Level 4
Accessing and Contextualizing Resources in Hypnosis
Michael Yapko, Ph.D.
Erickson's approach typically featured finding hidden personal resources and extending them into situations where they would help the client. This basic but valuable strategy is shown in a video clip of Dr. Erickson. A structured practice session follows.

Fundamental Hypnosis - Level 5
Use of the Therapist's Self in Hypnotherapy
Stephen Gilligan, Ph.D.
This workshop describes how a therapist can join a client's reality to hypnotically generate a "therapeutic trance" that includes both the problem and resources, as well as the client's and the therapist's perspectives. In this way, a therapeutic trance is one that "transcends yet includes" the client's problem in a way that allows new freedoms and possibilities.

Complete name : 01 - Induction Techniques (Stephen Lankton).avi
Format : AVI
Format/Info : Audio Video Interleave
File size : 700 MiB
Duration : 1h 32mn
Overall bit rate : 1 053 Kbps

ID : 0
Format : MPEG-4 Visual
Format profile : Advanced [email protected]
Format settings, BVOP : 1
Format settings, QPel : No
Format settings, GMC : No warppoints
Format settings, Matrix : Default (MPEG)
Muxing mode : Packed bitstream
Codec ID : XVID
Codec ID/Hint : XviD
Duration : 1h 32mn
Bit rate : 914 Kbps
Width : 480 pixels
Height : 352 pixels
Display aspect ratio : 4:3
Frame rate : 29.970 fps
Color space : YUV
Chroma subsampling : 4:2:0
Bit depth : 8 bits
Scan type : Progressive
Compression mode : Lossy
Bits/(Pixel*Frame) : 0.180
Stream size : 607 MiB (87%)
Writing library : XviD 1.2.0.dev47 (UTC 2006-11-01)

ID : 1
Format : MPEG Audio
Format version : Version 1
Format profile : Layer 3
Mode : Joint stereo
Mode extension : MS Stereo
Codec ID : 55
Codec ID/Hint : MP3
Duration : 1h 32mn
Bit rate mode : Constant
Bit rate : 128 Kbps
Channel(s) : 2 channels
Sampling rate : 48.0 KHz
Compression mode : Lossy
Stream size : 85.0 MiB (12%)
Alignment : Aligned on interleaves
Interleave, duration : 33 ms (1.00 video frame)
Interleave, preload duration : 504 ms
Writing library : LAME3.97b
Encoding settings : -m j -V 4 -q 2 -lowpass 17 -b 128





Download link:
Links are Interchangeable - No Password - Single Extraction


Site BBcode/HTML Code:

Tags to an Article: Fundamentals, Ericksonian, Hypnotherapy

Dear visitor, you went to the site as unregistered user.
We recommend you Sign up or Login to website under your name.
Would you like to leave your comment? Please Login to your account to leave comments. Don't have an account? You can create a free account now.