» » Space Debris - 3 Live Albums (2009-2015)



Information of news
29-05-2015, 08:25

Space Debris - 3 Live Albums (2009-2015)

Category: Music

http://i72.fastpic.ru/big/2015/0529/c3/140ac5e85ef77c116b57e38d58d45bc3.jpg

Space Debris - 3 Live Albums (2009-2015)
EAC Rip | FLAC (tracks+.cue+log) - 1,37 GB | MP3 CBR 320 kbps (LAME 3.93) - 503 MB | Covers - 96 MB
Genre: Progressive/Psychedelic/Space Rock | RAR 3% Rec. | Label: Breitklang

Space Debris hail from the Odenwald region in Germany. The members' main concern is to play improvised music reminiscent to 70s krautrock and psychedelic bands. The group started as a trio comprised of Tommy Gorny (guitar), Tom Kunkel (Hammond organ) and Christian Jäger (drums). Supported by many friends having guest appearances they already could produce six albums starting with the year 2002. If you're keen on ambitious jamming music you should check out Space Debris by all means.
Tracklist:
01. Solarization
02. Love Weibrator
03. Transmigration
04. Latrino Mortadella
05. Dance Of The Holy Orbit
06. Electric Eagle
07. Omnitron
08. Mountain Rising
09. Sience Fiction Is Today, Part I

Total time: 01:04:48

Exact Audio Copy V1.0 beta 1 from 15. November 2010

EAC extraction logfile from 30. June 2011, 18:38

Space Debris / Live Ghosts

Used drive : _NEC DVD_RW ND-3540A Adapter: 3 ID: 1

Read mode : Secure
Utilize accurate stream : Yes
Defeat audio cache : Yes
Make use of C2 pointers : No

Read offset correction : 48
Overread into Lead-In and Lead-Out : No
Fill up missing offset samples with silence : Yes
Delete leading and trailing silent blocks : No
Null samples used in CRC calculations : No
Used interface : Native Win32 interface for Win NT & 2000
Gap handling : Appended to previous track

Used output format : User Defined Encoder
Selected bitrate : 1024 kBit/s
Quality : High
Add ID3 tag : Yes
Command line compressor : C:\Program Files\FLAC\flac.exe
Additional command line options : -6 -V -T "ARTIST=%a" -T "TITLE=%t" -T "ALBUM=%g" -T "DATE=%y" -T "TRACKNUMBER=%n" -T "GENRE=%m" -T "COMMENT=%e" %s -o %d

TOC of the extracted CD

Track | Start | Length | Start sector | End sector
---------------------------------------------------------
1 | 0:00.00 | 7:07.07 | 0 | 32031
2 | 7:07.07 | 6:27.36 | 32032 | 61092
3 | 13:34.43 | 8:30.13 | 61093 | 99355
4 | 22:04.56 | 7:38.39 | 99356 | 133744
5 | 29:43.20 | 5:00.67 | 133745 | 156311
6 | 34:44.12 | 7:19.40 | 156312 | 189276
7 | 42:03.52 | 6:17.36 | 189277 | 217587
8 | 48:21.13 | 5:26.10 | 217588 | 242047
9 | 53:47.23 | 11:01.20 | 242048 | 291642

Track 1

Filename D:\Music\olaf_alien\Space Debris - Live Ghosts (2009, Breitklang)\01 - Solarization.wav

Pre-gap length 0:00:02.00

Peak level 99.8 %
Extraction speed 4.8 X
Track quality 100.0 %
Test CRC DE1E4493
Copy CRC DE1E4493
Track not present in AccurateRip database
Copy OK

Track 2

Filename D:\Music\olaf_alien\Space Debris - Live Ghosts (2009, Breitklang)\02 - Love Weibrator.wav

Peak level 99.8 %
Extraction speed 5.5 X
Track quality 100.0 %
Test CRC 0CEA5C8F
Copy CRC 0CEA5C8F
Track not present in AccurateRip database
Copy OK

Track 3

Filename D:\Music\olaf_alien\Space Debris - Live Ghosts (2009, Breitklang)\03 - Transmigration.wav

Peak level 99.8 %
Extraction speed 6.3 X
Track quality 100.0 %
Test CRC 818082BC
Copy CRC 818082BC
Track not present in AccurateRip database
Copy OK

Track 4

Filename D:\Music\olaf_alien\Space Debris - Live Ghosts (2009, Breitklang)\04 - Latrino Mortadella.wav

Peak level 99.8 %
Extraction speed 6.9 X
Track quality 100.0 %
Test CRC 51BA617D
Copy CRC 51BA617D
Track not present in AccurateRip database
Copy OK

Track 5

Filename D:\Music\olaf_alien\Space Debris - Live Ghosts (2009, Breitklang)\05 - Dance Of The Holy Orbit.wav

Peak level 99.8 %
Extraction speed 7.1 X
Track quality 100.0 %
Test CRC EC01658A
Copy CRC EC01658A
Track not present in AccurateRip database
Copy OK

Track 6

Filename D:\Music\olaf_alien\Space Debris - Live Ghosts (2009, Breitklang)\06 - Electric Eagle.wav

Peak level 99.8 %
Extraction speed 7.8 X
Track quality 100.0 %
Test CRC 6F24E932
Copy CRC 6F24E932
Track not present in AccurateRip database
Copy OK

Track 7

Filename D:\Music\olaf_alien\Space Debris - Live Ghosts (2009, Breitklang)\07 - Omnitron.wav

Peak level 99.8 %
Extraction speed 8.0 X
Track quality 100.0 %
Test CRC 326B3F70
Copy CRC 326B3F70
Track not present in AccurateRip database
Copy OK

Track 8

Filename D:\Music\olaf_alien\Space Debris - Live Ghosts (2009, Breitklang)\08 - Mountain Rising.wav

Peak level 99.8 %
Extraction speed 8.2 X
Track quality 100.0 %
Test CRC CC3C51F8
Copy CRC CC3C51F8
Track not present in AccurateRip database
Copy OK

Track 9

Filename D:\Music\olaf_alien\Space Debris - Live Ghosts (2009, Breitklang)\09 - Sience Fiction Is Today, Part I.wav

Peak level 99.8 %
Extraction speed 9.2 X
Track quality 100.0 %
Test CRC 2BDDFBF0
Copy CRC 2BDDFBF0
Track not present in AccurateRip database
Copy OK

None of the tracks are present in the AccurateRip database

No errors occurred

End of status report

[CUETools log; Date: 27.05.2015 18:06:49; Version: 2.1.4]
[CTDB TOCID: pAtyHVX4WV6fQTxgwADolIeqzek-] found.
Track | CTDB Status
1 | (2/2) Accurately ripped
2 | (2/2) Accurately ripped
3 | (2/2) Accurately ripped
4 | (2/2) Accurately ripped
5 | (2/2) Accurately ripped
6 | (2/2) Accurately ripped
7 | (2/2) Accurately ripped
8 | (2/2) Accurately ripped
9 | (2/2) Accurately ripped
[AccurateRip ID: 0015b6f6-009edf5e-7d0f3009] found.
Track [ CRC | V2 ] Status
01 [6b9e0b83|e3101a3b] (0+1/1) Accurately ripped
02 [a0ae8d10|1f4b7d77] (0+1/1) Accurately ripped
03 [e6e8e3b9|3a7ffc49] (0+1/1) Accurately ripped
04 [39ab5619|1ed426fe] (0+1/1) Accurately ripped
05 [36b964c2|5fa2d236] (0+1/1) Accurately ripped
06 [94a4fc8a|cb467ce7] (0+1/1) Accurately ripped
07 [97a11be8|645d0372] (0+1/1) Accurately ripped
08 [321e3db3|a19d1a94] (0+1/1) Accurately ripped
09 [80ec91f1|aa541e66] (0+1/1) Accurately ripped

Track Peak [ CRC32 ] [W/O NULL] [ LOG ]
-- 99,8 [22693853] [8015D946]
01 99,8 [E83F5D05] [DE1E4493] W/O NULL
02 99,8 [C13DF8C3] [0CEA5C8F] W/O NULL
03 99,8 [A9EC21D5] [818082BC] W/O NULL
04 99,8 [CB36A675] [51BA617D] W/O NULL
05 99,8 8A8006A [EC01658A] W/O NULL
06 99,8 [77205E8A] [6F24E932] W/O NULL
07 99,8 [45F443BE] [326B3F70] W/O NULL
08 99,8 [C859CEEA] [CC3C51F8] W/O NULL
09 99,8 [6E0D6842] [2BDDFBF0] W/O NULL



http://i72.fastpic.ru/big/2015/0529/60/64f1d4bcce83f7c27030d1d974b5ec60.jpg

Space Debris - Deepest View (Archive Volume 3) (2011)
EAC Rip | FLAC (tracks+.cue+log) - 503 MB | MP3 CBR 320 kbps (LAME 3.93) - 183 MB | Covers - 15 MB
Genre: Progressive/Psychedelic/Space Rock | RAR 3% Rec. | Label: Breitklang (SDDV1011CD)

Tracklist:
01. Mary-Joe-Anna
02. Reprise Of The Sun
03. Deepest View
04. Moon Roots
05. Blues
06. Anima
07. Latrino Mortadella II
08. Astronaut Versus Kosmonaut
09. Namber Nein
10. MoJoMe III
11. Mynona
12. Jerrys Aural Innovations

Total time: 01:17:42

Exact Audio Copy V1.0 beta 3 from 29. August 2011

EAC extraction logfile from 20. April 2015, 15:43

Space Debris / Archive Vol 3 - Deepest View

Used drive : _NEC DVD_RW ND-3540A Adapter: 1 ID: 0

Read mode : Secure
Utilize accurate stream : Yes
Defeat audio cache : Yes
Make use of C2 pointers : No

Read offset correction : 48
Overread into Lead-In and Lead-Out : No
Fill up missing offset samples with silence : Yes
Delete leading and trailing silent blocks : No
Null samples used in CRC calculations : Yes
Used interface : Native Win32 interface for Win NT & 2000
Gap handling : Appended to previous track

Used output format : User Defined Encoder
Selected bitrate : 1024 kBit/s
Quality : High
Add ID3 tag : Yes
Command line compressor : C:\Program Files (x86)\Exact Audio Copy\FLAC\FLAC.EXE
Additional command line options : -6 -V -T "ARTIST=%artist%" -T "TITLE=%title%" -T "ALBUM=%albumtitle%" -T "DATE=%year%" -T "TRACKNUMBER=%tracknr%" -T "GENRE=%genre%" -T "COMMENT=%comment%" %hascover%--picture="%coverfile%"%hascover% %source% -o %dest%

TOC of the extracted CD

Track | Start | Length | Start sector | End sector
---------------------------------------------------------
1 | 0:00.00 | 10:14.44 | 0 | 46093
2 | 10:14.44 | 3:32.13 | 46094 | 62006
3 | 13:46.57 | 21:30.34 | 62007 | 158790
4 | 35:17.16 | 6:23.58 | 158791 | 187573
5 | 41:40.74 | 5:39.53 | 187574 | 213051
6 | 47:20.52 | 9:17.43 | 213052 | 254869
7 | 56:38.20 | 9:21.24 | 254870 | 296968
8 | 65:59.44 | 5:28.32 | 296969 | 321600
9 | 71:28.01 | 0:27.16 | 321601 | 323641
10 | 71:55.17 | 1:33.00 | 323642 | 330616
11 | 73:28.17 | 4:04.03 | 330617 | 348919
12 | 77:32.20 | 0:10.45 | 348920 | 349714

Track 1

Filename F:\Music\olaf_alien\Space Debris - Archive Vol.3 - Deepest View (2011, Breitklang)\01 - Mary Jo Anna.wav

Pre-gap length 0:00:02.00

Peak level 99.8 %
Extraction speed 2.3 X
Track quality 100.0 %
Test CRC E726B42B
Copy CRC E726B42B
Accurately ripped (confidence 3) [9771EA9C] (AR v2)
Copy OK

Track 2

Filename F:\Music\olaf_alien\Space Debris - Archive Vol.3 - Deepest View (2011, Breitklang)\02 - Reprise Of The Sun.wav

Peak level 99.8 %
Extraction speed 1.4 X
Track quality 99.9 %
Test CRC 36435FD2
Copy CRC 36435FD2
Accurately ripped (confidence 3) [40D23267] (AR v2)
Copy OK

Track 3

Filename F:\Music\olaf_alien\Space Debris - Archive Vol.3 - Deepest View (2011, Breitklang)\03 - Deepest View.wav

Peak level 99.5 %
Extraction speed 2.2 X
Track quality 99.9 %
Test CRC F6AF1708
Copy CRC F6AF1708
Accurately ripped (confidence 3) [D51E8823] (AR v2)
Copy OK

Track 4

Filename F:\Music\olaf_alien\Space Debris - Archive Vol.3 - Deepest View (2011, Breitklang)\04 - Moon Roots.wav

Peak level 100.0 %
Extraction speed 1.7 X
Track quality 99.9 %
Test CRC D79C9C50
Copy CRC D79C9C50
Accurately ripped (confidence 3) [DF617445] (AR v2)
Copy OK

Track 5

Filename F:\Music\olaf_alien\Space Debris - Archive Vol.3 - Deepest View (2011, Breitklang)\05 - Blues.wav

Peak level 99.7 %
Extraction speed 2.2 X
Track quality 100.0 %
Test CRC 968B1BBB
Copy CRC 968B1BBB
Accurately ripped (confidence 3) [1F3F4886] (AR v2)
Copy OK

Track 6

Filename F:\Music\olaf_alien\Space Debris - Archive Vol.3 - Deepest View (2011, Breitklang)\06 - Anima.wav

Peak level 100.0 %
Extraction speed 2.3 X
Track quality 100.0 %
Test CRC 648EE9B6
Copy CRC 648EE9B6
Accurately ripped (confidence 3) [9765788E] (AR v2)
Copy OK

Track 7

Filename F:\Music\olaf_alien\Space Debris - Archive Vol.3 - Deepest View (2011, Breitklang)\07 - Latrino Mortadella II.wav

Peak level 100.0 %
Extraction speed 2.3 X
Track quality 100.0 %
Test CRC 9E029D7C
Copy CRC 9E029D7C
Accurately ripped (confidence 3) [6CE88859] (AR v2)
Copy OK

Track 8

Filename F:\Music\olaf_alien\Space Debris - Archive Vol.3 - Deepest View (2011, Breitklang)\08 - Astronaut Versus Kosmonaut.wav

Peak level 100.0 %
Extraction speed 2.2 X
Track quality 100.0 %
Test CRC FA6F839D
Copy CRC FA6F839D
Accurately ripped (confidence 3) [29B3B8F4] (AR v2)
Copy OK

Track 9

Filename F:\Music\olaf_alien\Space Debris - Archive Vol.3 - Deepest View (2011, Breitklang)\09 - Namber Nein.wav

Peak level 71.0 %
Extraction speed 0.3 X
Track quality 99.6 %
Test CRC 49A2E6F9
Copy CRC 49A2E6F9
Accurately ripped (confidence 3) [CD4BD4B5] (AR v2)
Copy OK

Track 10

Filename F:\Music\olaf_alien\Space Debris - Archive Vol.3 - Deepest View (2011, Breitklang)\10 - MoJoMe III.wav

Peak level 98.8 %
Extraction speed 1.7 X
Track quality 100.0 %
Test CRC A8417541
Copy CRC A8417541
Accurately ripped (confidence 3) [F3A595BB] (AR v2)
Copy OK

Track 11

Filename F:\Music\olaf_alien\Space Debris - Archive Vol.3 - Deepest View (2011, Breitklang)\11 - Mynona.wav

Peak level 99.9 %
Extraction speed 1.5 X
Track quality 99.9 %
Test CRC 3213F8F9
Copy CRC 3213F8F9
Accurately ripped (confidence 2) [37995916] (AR v2)
Copy OK

Track 12

Filename F:\Music\olaf_alien\Space Debris - Archive Vol.3 - Deepest View (2011, Breitklang)\12 - Jerrys Aural Inovations.wav

Peak level 51.8 %
Extraction speed 0.1 X
Track quality 98.9 %
Test CRC 1F582C3F
Copy CRC 1F582C3F
Accurately ripped (confidence 2) [2D13A7FB] (AR v2)
Copy OK

All tracks accurately ripped

No errors occurred

End of status report

==== Log checksum C087CF0BBBF9735FBD092AE4D7A9D3A184C4B6AB1F6D81852473CFED398892FC ====
Download link:
Links are Interchangeable - No Password - Single Extraction

uploaded


Rapidgator.net
Site BBcode/HTML Code:

Tags to an Article: Space, Debris, Live, Albums, 2009

Dear visitor, you went to the site as unregistered user.
We recommend you Sign up or Login to website under your name.
Information
Would you like to leave your comment? Please Login to your account to leave comments. Don't have an account? You can create a free account now.