» » Pretenders - Learning To Crawl (1984) [2015, Edsel EDSG 8049, 2CD + DVD]



Information of news
29-05-2015, 07:06

Pretenders - Learning To Crawl (1984) [2015, Edsel EDSG 8049, 2CD + DVD]

Category: Music

http://i69.fastpic.ru/big/2015/0529/f9/a16117bca2b8823b1ab4da59b2d0c5f9.jpg

Pretenders - Learning To Crawl (1984)
EAC | Flac(Image) + Cue + Log & MP3 CBR 320Kbps
2CD | Edsel, EDSG 8049 | ~ 564 or 194 Mb | Scans(600dpi, jpg) -> 93 Mb
DVD5: MPEG 2, 720x480 (4:3), 29.97 fps | AC-3, 48.0 KHz, 2 ch, 192 Kbps -> 1.51 Gb
Alternative Rock / New Wave / Punk Rock

Chrissie Hynde took a long, hard road to rock & roll stardom, but when her band, the Pretenders, finally broke through in 1979, they wasted no time, growing from promising newcomers on the British music scene to major international stardom with a pair of smash albums to their credit in a mere three years...
But the Pretenders' meteoric rise came to a crashing halt in 1982, when drug abuse claimed the life of guitarist James Honeyman-Scott and forced Hynde and drummer Martin Chambers to dump bassist Pete Farndon, who would also succumb to an OD in April 1983. Hynde was forced by circumstance to reinvent the Pretenders for their third album, 1984's Learning to Crawl, but if the new edition of the group lacked some of the spark of the band that made the first two LPs, through sheer force of will Hynde created a masterpiece. While Hynde hardly held back in her emotionally potent songwriting in the Pretenders' early work, on Learning to Crawl there's a gravity to her lyrics that blended with her tough but wiry melodic sense and streetwise intelligence to create a set of truly remarkable tunes. "Back on the Chain Gang" is a touching tribute to her fallen comrades that still sounds bitterly rueful, "Middle of the Road" is a furious rocker that explores the emotional and physical toll of a musician's life, "Time the Avenger" is a taut, literate examination of a businessman's adulterous relationship, "My City Was Gone" deals with the economic and cultural decay of the Midwest in a manner both pithy and genuinely heartfelt, and "2000 Miles" is a Christmas number that demonstrates Hynde can be warm without getting sappy. As a guitarist, Robbie McIntosh brought a simpler and more elemental style to the Pretenders than James Honeyman-Scott, but his tough, muscular leads fit these songs well, and bassist Malcolm Foster's solid punch fits Chambers' drumming perfectly. Three albums into her recording career, Chrissie Hynde found herself having to put the past to bed and carve out a new beginning for herself with Learning to Crawl, but she pulled it off with a striking mixture of courage, strength, and great rock & roll; with the exception of the instant-classic debut album, it's the Pretenders' finest work.

Learning To Crawl:
01. Middle Of The Road - 4:14
02. Back On The Chain Gang - 3:51
03. Time The Avenger - 4:56
04. Watching The Clothes - 2:53
05. Show Me - 4:09
06. Thumbelina - 3:18
07. My City Was Gone - 5:25
08. Thin Line Between Love And Hate - 3:44
09. I Hurt You - 4:36
10. 2000 Miles - 3:38

Exact Audio Copy V1.0 beta 4 from 7. December 2014

EAC extraction logfile from 20. March 2015, 22:09

Pretenders / Learning To Crawl CD1 (2015, 2CD+DVD, EDSG 8049)

Used drive : ATAPI iHAS124 B Adapter: 1 ID: 0

Read mode : Secure
Utilize accurate stream : Yes
Defeat audio cache : Yes
Make use of C2 pointers : No

Read offset correction : 6
Overread into Lead-In and Lead-Out : No
Fill up missing offset samples with silence : Yes
Delete leading and trailing silent blocks : No
Null samples used in CRC calculations : Yes
Used interface : Installed external ASPI interface

Used output format : User Defined Encoder
Selected bitrate : 128 kBit/s
Quality : High
Add ID3 tag : Yes
Command line compressor : C:\Program Files (x86)\Exact Audio Copy\Flac\flac.exe
Additional command line options : -V -8 -T "Date=%year%" -T "Genre=%genre%" %source%

TOC of the extracted CD

Track | Start | Length | Start sector | End sector
---------------------------------------------------------
1 | 0:00.00 | 4:14.11 | 0 | 19060
2 | 4:14.11 | 3:51.33 | 19061 | 36418
3 | 8:05.44 | 4:55.60 | 36419 | 58603
4 | 13:01.29 | 2:52.57 | 58604 | 71560
5 | 15:54.11 | 4:08.58 | 71561 | 90218
6 | 20:02.69 | 3:17.56 | 90219 | 105049
7 | 23:20.50 | 5:24.59 | 105050 | 129408
8 | 28:45.34 | 3:44.20 | 129409 | 146228
9 | 32:29.54 | 4:35.63 | 146229 | 166916
10 | 37:05.42 | 3:37.66 | 166917 | 183257

Range status and errors

Selected range

Filename G:\CD\Pretenders - Learning To Crawl CD1.wav

Peak level 100.0 %
Extraction speed 5.3 X
Range quality 100.0 %
Test CRC C1B7B58B
Copy CRC C1B7B58B
Copy OK

No errors occurred


AccurateRip summary

Track 1 not present in database
Track 2 not present in database
Track 3 not present in database
Track 4 not present in database
Track 5 not present in database
Track 6 not present in database
Track 7 not present in database
Track 8 not present in database
Track 9 not present in database
Track 10 not present in database

None of the tracks are present in the AccurateRip database

End of status report

---- CUETools DB Plugin V2.1.4

[CTDB TOCID: JJoTDwKuFNz3QPHyTmGSB79pyzE-] found
Submit result: JJoTDwKuFNz3QPHyTmGSB79pyzE- has been confirmed
Track | CTDB Status
1 | (2/2) Accurately ripped
2 | (2/2) Accurately ripped
3 | (2/2) Accurately ripped
4 | (2/2) Accurately ripped
5 | (2/2) Accurately ripped
6 | (2/2) Accurately ripped
7 | (2/2) Accurately ripped
8 | (2/2) Accurately ripped
9 | (2/2) Accurately ripped
10 | (2/2) Accurately ripped

==== Log checksum 480C0AC45D010DC8F1B42E11C8765E4B3298E07623EA17BF0AAEDBF405706088 ====
Download link:
Links are Interchangeable - No Password - Single Extraction

uploaded


Rapidgator.net
Site BBcode/HTML Code:

Tags to an Article: Pretenders, Learning, Crawl, 1984, 2015

Dear visitor, you went to the site as unregistered user.
We recommend you Sign up or Login to website under your name.
Information
Would you like to leave your comment? Please Login to your account to leave comments. Don't have an account? You can create a free account now.