» » VA - Those Were The Days: The Good Life (2015)



Information of news
27-05-2015, 10:28

VA - Those Were The Days: The Good Life (2015)

Category: Music

http://i72.fastpic.ru/big/2015/0527/64/9f51adaf89694ce587709b3c0b35f564.jpg

VA - Those Were The Days: The Good Life (2015)
2CD | EAC Rip | FLAC (Img) + Cue + Log ~ 476 Mb | MP3 CBR320 ~ 215 Mb
Scans Included (JPG, 400 dpi) | RAR 5% Recovery
Pop | Sony Music #88875059812

Those Were the Days is a wonderful collection of pop music 40's - 70's of the last century. Includes: Frank Sinatra, Tony Bennett, Doris Day, Nina Simone, Perry Como...
***************

http://i70.fastpic.ru/big/2015/0527/44/30e89c519854c21210997a2f40705b44.jpg

Track List CD1:

01. Tony Bennett - The Good Life [02:16]
02. Frank Sinatra - Night and Day [03:19]
03. Johnny Mathis - Chances Are [03:02]
04. Jerry Vale - Love Is a Many Splendored Thing [02:40]
05. Billie Holiday - But Beautiful [04:30]
06. Della Reese - Don't You Know [02:34]
07. Patti Page - Say Wonderful Things [02:21]
08. Lena Horne - It's Love [02:13]
09. Rosemary Clooney - You Make Me Feel So Young [02:53]
10. Eddie Fisher - Anytime [02:36]
11. Buddy Greco - Around The World [02:26]
12. Jim Reeves - Welcome to My World [02:33]
13. Tony Martin - Stranger In Paradise [03:21]
14. Mel Torme - That's All [03:51]
15. Vic Damone - On the Street Where You Live [02:42]

Exact Audio Copy V0.99 prebeta 5 from 4. May 2009

EAC extraction logfile from 25. May 2015, 11:44

Various / Those Were The Days: The Good Life (CD 1)

Used drive : ATAPI iHAS122 C Adapter: 1 ID: 1

Read mode : Secure
Utilize accurate stream : Yes
Defeat audio cache : Yes
Make use of C2 pointers : No

Read offset correction : 6
Overread into Lead-In and Lead-Out : No
Fill up missing offset samples with silence : Yes
Delete leading and trailing silent blocks : No
Null samples used in CRC calculations : Yes
Used interface : Native Win32 interface for Win NT & 2000

Used output format : Monkey's Audio Lossless Encoder
Selected bitrate : High Lossless Compression
Quality : High
Add ID3 tag : No
Command line compressor : C:\Program Files (x86)\Monkey's Audio\MAC.exe
Additional command line options : -v

TOC of the extracted CD

Track | Start | Length | Start sector | End sector
---------------------------------------------------------
1 | 0:00.00 | 2:15.32 | 0 | 10156
2 | 2:15.32 | 3:18.22 | 10157 | 25028
3 | 5:33.54 | 3:01.23 | 25029 | 38626
4 | 8:35.02 | 2:39.27 | 38627 | 50578
5 | 11:14.29 | 4:29.50 | 50579 | 70803
6 | 15:44.04 | 2:33.25 | 70804 | 82303
7 | 18:17.29 | 2:20.13 | 82304 | 92816
8 | 20:37.42 | 2:12.39 | 92817 | 102755
9 | 22:50.06 | 2:52.70 | 102756 | 115725
10 | 25:43.01 | 2:35.37 | 115726 | 127387
11 | 28:18.38 | 2:25.55 | 127388 | 138317
12 | 30:44.18 | 2:32.45 | 138318 | 149762
13 | 33:16.63 | 3:20.43 | 149763 | 164805
14 | 36:37.31 | 3:50.12 | 164806 | 182067
15 | 40:27.43 | 2:42.00 | 182068 | 194217

Range status and errors

Selected range

Filename C:\Users\London\Desktop\Various - Those Were The Days The Good Life (CD 1).wav

Peak level 99.8 %
Range quality 100.0 %
Test CRC FD57488B
Copy CRC FD57488B
Copy OK

No errors occurred


AccurateRip summary

Track 1 not present in database
Track 2 not present in database
Track 3 not present in database
Track 4 not present in database
Track 5 not present in database
Track 6 not present in database
Track 7 not present in database
Track 8 not present in database
Track 9 not present in database
Track 10 not present in database
Track 11 not present in database
Track 12 not present in database
Track 13 not present in database
Track 14 not present in database
Track 15 not present in database

None of the tracks are present in the AccurateRip database
Download link:
Links are Interchangeable - No Password - Single Extraction

uploaded


Rapidgator.net
Site BBcode/HTML Code:

Tags to an Article: Those, Were, The, Days, The

Dear visitor, you went to the site as unregistered user.
We recommend you Sign up or Login to website under your name.
Information
Would you like to leave your comment? Please Login to your account to leave comments. Don't have an account? You can create a free account now.