» » » Acland's Atlas of Human Anatomy



Information of news
24-05-2015, 04:25

Acland's Atlas of Human Anatomy

Category: Tutorials » Other

http://i71.fastpic.ru/big/2015/0522/de/790bdf6e3c50b0f12ed37e67328ad2de.jpg

Acland's Atlas of Human Anatomy
English | MP4 | 384x288 | MPEG-4 Visual 614 Kbps 29.970 fps | AAC 135 Kbps 48.0 khz | 15h 09mn | 4.28 GB
Genre: Video Training, Anatomy

The six DVDs in this remarkable and beautifully produced DVD anatomy atlas explore the fundamental structures of the Musculoskeletal System, the Head and Neck, and the Internal Organs.
These DVDs show you true images of real, exquisitely dissected human anatomical specimens, in three dimensions. As the camera moves from one viewpoint to another, the specimen appears to rotate in space, letting the viewer experience it as a three-dimensional object. Acland's DVD Atlas uses fresh, un-emb
almed specimens that retain the color, texture, mobility-and beauty-of the living human body.
A concise synchronized narration runs throughout the program. As each new structure is shown, its name appears on the screen. There is a self-testing feature at the end of each section. Specific content can be accessed through detailed searches of the index and table of contents.
For students, Acland's DVD Atlas is a time-saving aid to first-time learning, an effective way to relearn anatomy for clinical rotations, and a time-efficient tool for review. For clinicians in training and in practice, it assures a swift renewal of anatomic knowledge. For teachers, Acland's DVD Atlas shortens the time needed to provide immediate, satisfying explanations of three-dimensional structure.

General
Complete name : 01 - The Shoulder.mp4
Format : MPEG-4
Format profile : Base Media
Codec ID : isom
File size : 183 MiB
Duration : 37mn 47s
Overall bit rate mode : Variable
Overall bit rate : 676 Kbps
Encoded date : UTC 2004-08-07 20:36:19
Tagged date : UTC 2004-08-07 20:36:19

Video
ID : 3
Format : MPEG-4 Visual
Format profile : Advanced [email protected]
Format settings, BVOP : Yes
Format settings, QPel : No
Format settings, GMC : No warppoints
Format settings, Matrix : Default (H.263)
Codec ID : 20
Duration : 37mn 47s
Bit rate mode : Variable
Bit rate : 614 Kbps
Maximum bit rate : 1 558 Kbps
Width : 384 pixels
Height : 288 pixels
Display aspect ratio : 4:3
Frame rate mode : Constant
Frame rate : 29.970 fps
Color space : YUV
Chroma subsampling : 4:2:0
Bit depth : 8 bits
Scan type : Progressive
Compression mode : Lossy
Bits/(Pixel*Frame) : 0.185
Stream size : 166 MiB (91%)
Writing library : em4v 4.1.6.2
Language : English
Encoded date : UTC 2004-08-07 20:36:19
Tagged date : UTC 2004-08-07 20:36:19

Audio
ID : 4
Format : AAC
Format/Info : Advanced Audio Codec
Format profile : HE-AAC / LC
Codec ID : 40
Duration : 37mn 47s
Bit rate mode : Variable
Bit rate : 55.9 Kbps
Maximum bit rate : 135 Kbps
Channel(s) : 2 channels
Channel positions : Front: L R
Sampling rate : 48.0 KHz / 24.0 KHz
Compression mode : Lossy
Stream size : 15.1 MiB (8%)
Title : Nero Digital Audio 2-ch Engli
Language : English
Encoded date : UTC 2004-08-07 20:36:19
Tagged date : UTC 2004-08-07 20:36:19

Text
ID : 5
Format : mp4s
Codec ID : E0
Duration : 35mn 4s
Bit rate mode : Variable
Bit rate : 489 bps
Maximum bit rate : 12.2 Kbps
Stream size : 126 KiB (0%)
Title : English
Language : English
Encoded date : UTC 2004-08-07 20:36:19
Tagged date : UTC 2004-08-07 20:36:19

Other #1
ID : 1
Type : Object description
Format : System
Codec ID : 1
Duration : 1ms
Language : French
Encoded date : UTC 2004-08-07 20:36:19
Tagged date : UTC 2004-08-07 20:36:19

Other #2
ID : 2
Type : Scene description
Format : System
Codec ID : 1
Duration : 1ms
Language : French
Encoded date : UTC 2004-08-07 20:36:19
Tagged date : UTC 2004-08-07 20:36:19

Screenshots:

http://i72.fastpic.ru/big/2015/0522/6d/8314ea188408becb8004eac5b7fbe76d.jpg

http://i69.fastpic.ru/big/2015/0522/3c/af2d35a6a045cbb27357801cb910383c.jpg

http://i70.fastpic.ru/big/2015/0522/7f/5cd88d668c29aa4495be3c49be93377f.jpg

Download link:
Links are Interchangeable - No Password - Single Extraction

uploaded


Rapidgator.net
Site BBcode/HTML Code:

Tags to an Article: Acland, Atlas, Human, Anatomy

Dear visitor, you went to the site as unregistered user.
We recommend you Sign up or Login to website under your name.
Information
Would you like to leave your comment? Please Login to your account to leave comments. Don't have an account? You can create a free account now.