» » The Crimson ProjeKCt - Official Bootleg Live. Extended Edition (2013)



Information of news
23-05-2015, 09:04

The Crimson ProjeKCt - Official Bootleg Live. Extended Edition (2013)

Category: Music

The Crimson ProjeKCt - Official Bootleg Live. Extended Edition (2013)

The Crimson ProjeKCt - Official Bootleg Live. Extended Edition (2013)
EAC | Flac(Image) + Cue + Log & MP3 CBR 320Kbps
2CD | Unsung Productions, TCP001ACD | ~ 684 or 239 Mb | Scans(600dpi, jpg) -> 53 Mb
Progressive Rock

"The Crimson ProjeKCt is a combination of two groups: The Adrian Belew Power Trio and Stickmen. Adrian is a King Crimson guitar player and its longest running singer - in addition to having worked with Bowie, NiN, Talking Heads and more. Stickmen includes Crimson members Tony Levin and Pat Mastelotto, whose session work includes a veritable ''Who's Who of Rock History.'..."

Tracklist CD1 - USA 2012:

01. B'Boom (05:17)
02. Thrak (04:10)
03. Dinosaur (05:02)
04. Elephant Talk (04:50)
05. Red (06:37)
06. Frame By Frame (04:01)
07. Thela Hun Ginjeet (06:11)
08. Indiscipline (09:37)

Exact Audio Copy V1.0 beta 4 from 7. December 2014

EAC extraction logfile from 13. April 2015, 11:26

The Crimson ProjeKct / Official Bootleg Live Extended Edition CD 1 - USA 2012

Used drive : LITE-ON DVDRW LH-20A1L Adapter: 6 ID: 0

Read mode : Secure
Utilize accurate stream : Yes
Defeat audio cache : Yes
Make use of C2 pointers : No

Read offset correction : 6
Overread into Lead-In and Lead-Out : No
Fill up missing offset samples with silence : Yes
Delete leading and trailing silent blocks : No
Null samples used in CRC calculations : Yes
Used interface : Installed external ASPI interface

Used output format : Internal WAV Routines
Sample format : 44.100 Hz; 16 Bit; Stereo

TOC of the extracted CD

Track | Start | Length | Start sector | End sector
---------------------------------------------------------
1 | 0:00.00 | 5:17.19 | 0 | 23793
2 | 5:17.19 | 4:10.03 | 23794 | 42546
3 | 9:27.22 | 5:01.58 | 42547 | 65179
4 | 14:29.05 | 4:50.20 | 65180 | 86949
5 | 19:19.25 | 6:37.06 | 86950 | 116730
6 | 25:56.31 | 4:01.02 | 116731 | 134807
7 | 29:57.33 | 6:10.66 | 134808 | 162623
8 | 36:08.24 | 9:37.03 | 162624 | 205901

Range status and errors

Selected range

Filename Z:\data\hexonut\Seeding\The Crimson ProjeKct\2013-Official Bootleg Live - Extended Edition\Official Bootleg Live Extended Edition CD 1 - USA 2012.wav

Peak level 97.7 %
Extraction speed 8.2 X
Range quality 100.0 %
Test CRC 81B1F286
Copy CRC 81B1F286
Copy OK

No errors occurred


AccurateRip summary

Track 1 accurately ripped (confidence 1) [73530196] (AR v2)
Track 2 accurately ripped (confidence 1) [4F2A9098] (AR v2)
Track 3 accurately ripped (confidence 1) [3B7D27AE] (AR v2)
Track 4 accurately ripped (confidence 1) [2A74D386] (AR v2)
Track 5 accurately ripped (confidence 1) [4028FFAD] (AR v2)
Track 6 accurately ripped (confidence 1) [EFAF9156] (AR v2)
Track 7 accurately ripped (confidence 1) [8CAA802B] (AR v2)
Track 8 accurately ripped (confidence 1) [432D8457] (AR v2)

All tracks accurately ripped

End of status report

==== Log checksum 82155DFBDC2F9460383BD1A8E020ADE264B59E53237C9EB6CCEBB7FEE826DB84 ====

foobar2000 1.2.9 / Dynamic Range Meter 1.1.1
log date: 2015-05-22 21:41:48

--------------------------------------------------------------------------------
Analyzed: The Crimson ProjeKCt / Official Bootleg Live Extended Edition CD 1 - USA 2012
--------------------------------------------------------------------------------

DR Peak RMS Duration Track
--------------------------------------------------------------------------------
DR7 -0.20 dB -9.48 dB 5:17 01-B'Boom
DR6 -0.20 dB -9.26 dB 4:10 02-Thrak
DR6 -0.20 dB -7.62 dB 5:02 03-Dinosaur
DR7 -0.20 dB -8.32 dB 4:50 04-Elephant Talk
DR8 -0.20 dB -9.51 dB 6:37 05-Red
DR7 -0.20 dB -9.92 dB 4:01 06-Frame By Frame
DR6 -0.20 dB -7.14 dB 6:11 07-Thela Hun Ginjeet
DR6 -0.20 dB -8.19 dB 9:37 08-Indiscipline
--------------------------------------------------------------------------------

Number of tracks: 8
Official DR value: DR7

Samplerate: 44100 Hz
Channels: 2
Bits per sample: 16
Bitrate: 995 kbps
Codec: FLAC

[CUETools log; Date: 22.05.2015 21:41:55; Version: 2.1.4]
[CTDB TOCID: ymq7.M2l7FxDkR_5iu4a7EufH3g-] found.
Track | CTDB Status
1 | (1/1) Accurately ripped
2 | (1/1) Accurately ripped
3 | (1/1) Accurately ripped
4 | (1/1) Accurately ripped
5 | (1/1) Accurately ripped
6 | (1/1) Accurately ripped
7 | (1/1) Accurately ripped
8 | (1/1) Accurately ripped
[AccurateRip ID: 000ccb88-00567ff4-730ab908] found.
Track [ CRC | V2 ] Status
01 [0f303cbc|73530196] (1+1/2) Accurately ripped
02 [ddde4c5d|4f2a9098] (1+1/2) Accurately ripped
03 [53f11431|3b7d27ae] (1+1/2) Accurately ripped
04 [73f1a77f|2a74d386] (1+1/2) Accurately ripped
05 [12635f35|4028ffad] (1+1/2) Accurately ripped
06 [80c7b968|efaf9156] (1+1/2) Accurately ripped
07 [037bf500|8caa802b] (1+1/2) Accurately ripped
08 [0289a09e|432d8457] (1+1/2) Accurately ripped

Track Peak [ CRC32 ] [W/O NULL] [ LOG ]
-- 97,7 [81B1F286] [191704EA] CRC32
01 97,7 [FE78EAFF] [D5649891]
02 97,7 [CBDDBCE6] [108BECE9]
03 97,7 [8221EA04] [0E3AD945]
04 97,7 [8B0B3C31] [ED1F3B81]
05 97,7 [6B187EB4] [54A14DCB]
06 97,7 [E7B60ECD] [81F24116]
07 97,7 [E9FAA258] [73740797]
08 97,7 [7C0595CF] [F9BEAE33]

Tracklist CD2 - Japan 2013:

01. Neurotica (05:26)
02. VROOOM VROOOM (04:53)
03. Three Of A Perfect Pair (03:43)
04. Industry (08:35)
05. Larks' Tongues In Aspic: Part II (07:05)
06. Sleepless (06:21)
07. B'Boom (13:12)
08. THRAK (06:29)

Exact Audio Copy V1.0 beta 4 from 7. December 2014

EAC extraction logfile from 13. April 2015, 11:42

The Crimson ProjeKct / Official Bootleg Live Extended Edition CD 2 - Japan 2013

Used drive : LITE-ON DVDRW LH-20A1L Adapter: 6 ID: 0

Read mode : Secure
Utilize accurate stream : Yes
Defeat audio cache : Yes
Make use of C2 pointers : No

Read offset correction : 6
Overread into Lead-In and Lead-Out : No
Fill up missing offset samples with silence : Yes
Delete leading and trailing silent blocks : No
Null samples used in CRC calculations : Yes
Used interface : Installed external ASPI interface

Used output format : Internal WAV Routines
Sample format : 44.100 Hz; 16 Bit; Stereo

TOC of the extracted CD

Track | Start | Length | Start sector | End sector
---------------------------------------------------------
1 | 0:00.00 | 5:26.00 | 0 | 24449
2 | 5:26.00 | 4:52.70 | 24450 | 46419
3 | 10:18.70 | 3:42.55 | 46420 | 63124
4 | 14:01.50 | 8:35.20 | 63125 | 101769
5 | 22:36.70 | 7:05.05 | 101770 | 133649
6 | 29:42.00 | 6:21.00 | 133650 | 162224
7 | 36:03.00 | 13:11.60 | 162225 | 221609
8 | 49:14.60 | 6:28.53 | 221610 | 250762

Range status and errors

Selected range

Filename Z:\data\hexonut\Seeding\The Crimson ProjeKct\2013-Official Bootleg Live - Extended Edition\Official Bootleg Live Extended Edition CD 2 - Japan 2013.wav

Peak level 97.7 %
Extraction speed 7.9 X
Range quality 100.0 %
Test CRC E1D4A191
Copy CRC E1D4A191
Copy OK

No errors occurred


AccurateRip summary

Track 1 accurately ripped (confidence 1) [CC6B6658] (AR v2)
Track 2 accurately ripped (confidence 1) [A0F77438] (AR v2)
Track 3 accurately ripped (confidence 1) [58AA6254] (AR v2)
Track 4 accurately ripped (confidence 1) [DDFC4709] (AR v2)
Track 5 accurately ripped (confidence 1) [58CFFA6A] (AR v2)
Track 6 accurately ripped (confidence 1) [A8CBA5F4] (AR v2)
Track 7 accurately ripped (confidence 1) [ECCEE2C0] (AR v2)
Track 8 accurately ripped (confidence 1) [CC0E5E2E] (AR v2)

All tracks accurately ripped

End of status report

==== Log checksum BF2B4E8B61DE226DA27CFABAAE7C14B784EFC2846A3C2BF61D45DE061B20488F ====

foobar2000 1.2.9 / Dynamic Range Meter 1.1.1
log date: 2015-05-22 21:42:08

--------------------------------------------------------------------------------
Analyzed: The Crimson ProjeKCt / Official Bootleg Live Extended Edition CD 2 - Japan 2013
--------------------------------------------------------------------------------

DR Peak RMS Duration Track
--------------------------------------------------------------------------------
DR6 -0.20 dB -8.23 dB 5:26 01-Neurotica
DR7 -0.20 dB -9.14 dB 4:53 02-VROOOM VROOOM
DR8 -0.20 dB -9.46 dB 3:43 03-Three Of A Perfect Pair
DR10 -0.20 dB -12.36 dB 8:35 04-Industry
DR10 -0.20 dB -11.93 dB 7:05 05-Larks' Tongues In Aspic: Part II
DR5 -0.20 dB -7.12 dB 6:21 06-Sleepless
DR7 -0.20 dB -11.34 dB 13:12 07-B'Boom
DR7 -0.20 dB -10.21 dB 6:29 08-THRAK
--------------------------------------------------------------------------------

Number of tracks: 8
Official DR value: DR8

Samplerate: 44100 Hz
Channels: 2
Bits per sample: 16
Bitrate: 851 kbps
Codec: FLAC

[CUETools log; Date: 22.05.2015 21:42:13; Version: 2.1.4]
[CTDB TOCID: rdF7vjIfu.fS3UEpLQTjNdKdZJo-] found.
Track | CTDB Status
1 | (1/1) Accurately ripped
2 | (1/1) Accurately ripped
3 | (1/1) Accurately ripped
4 | (1/1) Accurately ripped
5 | (1/1) Accurately ripped
6 | (1/1) Accurately ripped
7 | (1/1) Accurately ripped
8 | (1/1) Accurately ripped
[AccurateRip ID: 000f51ed-00698a7d-6f0d0f08] found.
Track [ CRC | V2 ] Status
01 [d9248c37|cc6b6658] (1+1/2) Accurately ripped
02 [42344af2|a0f77438] (1+1/2) Accurately ripped
03 [8ddd9a94|58aa6254] (1+1/2) Accurately ripped
04 e0c50e1|ddfc4709 (1+1/2) Accurately ripped
05 [96688c52|58cffa6a] (1+1/2) Accurately ripped
06 [2b324ed7|a8cba5f4] (1+1/2) Accurately ripped
07 [1538212e|eccee2c0] (1+1/2) Accurately ripped
08 [cf66f11d|cc0e5e2e] (1+1/2) Accurately ripped

Track Peak [ CRC32 ] [W/O NULL] [ LOG ]
-- 97,7 [E1D4A191] 4E61A0D CRC32
01 97,7 [22D5E9EF] [DA570B43]
02 97,7 [A2179B58] [966B4618]
03 97,7 [6D8CCAFE] [7AA64FD4]
04 97,7 [ADF6DB13] [21BB995B]
05 97,7 [A201FC5D] [04F19252]
06 97,7 [A0DFE712] [49E518FB]
07 97,7 [13421943] [9782F2CB]
08 97,7 [993E890B] [3AE77F67]
Download link:



Links are Interchangeable - No Password - Single Extraction

uploaded


Rapidgator.net
Site BBcode/HTML Code:

Tags to an Article: The, Crimson, ProjeKCt, Official, Bootleg

Dear visitor, you went to the site as unregistered user.
We recommend you Sign up or Login to website under your name.
Information
Would you like to leave your comment? Please Login to your account to leave comments. Don't have an account? You can create a free account now.