» » John Verity Band - Live At Bosky (2015)



Information of news
23-05-2015, 08:58

John Verity Band - Live At Bosky (2015)

Category: Music

John Verity Band - Live At Bosky (2015)

John Verity Band - Live At Bosky (2015)
EAC Rip | FLAC (Img) + Cue + Log ~ 315 Mb | MP3 CBR320 ~ 116 Mb
Scans Included (JPG, 600 dpi) | RAR 5% Recovery
Blues-Rock, Classic Rock | VaVoom Records #889211478897

"The brand new album - featuring Bob Henrit & bob Skeat, and with Special Guest Bianca Kinane featured on vocals with Tom Wilson on keyboards... Our regular fans told us they wanted recordings of material from our live set that wasn't available on any of our studio albums - so here it is! Recorded live in one day at Bosky Studios in the beautiful village of Ireland in Bedfordshire... Enjoy! John Verity has had a varied and amazing career to date, including support dates with rock luminaries such as Jimi Hendrix, Janis Joplin, The Who, John Mayall's Bluesbreakers, and Mountain, to recording dates with Ringo Starr, Keith Emerson, Greg Lake, Tim Rose, Zombies, Colin Blunstone, Phoenix, Charlie, and Argent to name but a few..."

Currently touring to promote his latest album ‘Tone Hound - on the last train to Corona' a schedule that includes both unplugged and electric shows.
JV has recorded and toured constantly with his solo projects- always with that distinctive soulful blues edge - and collaborations both in and out of the studio. One of these took place on a Jools Holland tour a while back when John first performed with stunning vocalist Bianca Kinane whilst promoting her debut album.
Bianca was John's guest on selected 2014 shows and has returned again in 2015 for live shows and to be featured on this new album...
~ cdbaby
"

Track List:

01. Nothings Changed [03:48]
02. Say Why [06:03]
03. I Just Wanna Make Love to You [03:12]
04. I Put a Spell On You [04:37]
05. The Blues Had a Baby [03:44]
06. Route 66 [03:34]
07. Johnny B Goode [05:17]
08. While My Guitar Gently Weeps [05:24]
09. Help Me [05:26]

Exact Audio Copy V1.0 beta 3 from 29. August 2011

Отчёт EAC об извлечении, выполненном 18. мая 2015, 3:34

John Verity Band / Live At Bosky

Дисковод: PLEXTOR DVDR PX-880SA Adapter: 1 ID: 0

Режим чтения : Достоверность
Использование точного потока : Да
Отключение кэша аудио : Да
Использование указателей C2 : Нет

Коррекция смещения при чтении : 6
Способность читать области Lead-in и Lead-out : Нет
Заполнение пропущенных сэмплов тишиной : Да
Удаление блоков с тишиной в начале и конце : Нет
При вычислениях CRC использовались нулевые сэмплы : Да
Интерфейс : Установленный внешний ASPI-интерфейс

Выходной формат : Пользовательский кодировщик
Выбранный битрейт : 1024 kBit/s
Качество : Высокий
Добавление ID3-тега : Нет
Утилита сжатия : C:\Program Files\Exact Audio Copy\FLAC\FLAC.EXE
Дополнительные параметры : -10 -V -T "ARTIST=%artist%" -T "ALBUM=%albumtitle%" -T "DATE=%year%" -T "GENRE=%genre%" -T "COMMENT=ripped by izia1956" %source%

TOC извлечённого CD

Трек | Старт | Длительность | Начальный сектор | Конечный сектор
---------------------------------------------------------------------
1 | 0:00.00 | 3:47.49 | 0 | 17073
2 | 3:47.49 | 6:02.20 | 17074 | 44243
3 | 9:49.69 | 3:11.44 | 44244 | 58612
4 | 13:01.38 | 4:36.54 | 58613 | 79366
5 | 17:38.17 | 3:43.02 | 79367 | 96093
6 | 21:21.19 | 3:33.08 | 96094 | 112076
7 | 24:54.27 | 5:16.44 | 112077 | 135820
8 | 30:10.71 | 5:23.21 | 135821 | 160066
9 | 35:34.17 | 5:26.00 | 160067 | 184516

Характеристики диапазона извлечения и сообщения об ошибках

Выбранный диапазон

Имя файла D:\BitComet\John Verity\2015 - Live At Bosky\John Verity Band - Live At Bosky.wav

Пиковый уровень 99.0 %
Скорость извлечения 2.9 X
Качество диапазона 100.0 %
CRC теста 1EA39D2C
CRC копии 1EA39D2C
Копирование... OK

Ошибок не произошло


AccurateRip: сводка

Трек 1 отсутствует в базе данных
Трек 2 отсутствует в базе данных
Трек 3 отсутствует в базе данных
Трек 4 отсутствует в базе данных
Трек 5 отсутствует в базе данных
Трек 6 отсутствует в базе данных
Трек 7 отсутствует в базе данных
Трек 8 отсутствует в базе данных
Трек 9 отсутствует в базе данных

Ни одного трека нет в базе AccurateRip

Конец отчёта

==== Контрольная сумма отчёта E2D633B8B2D0F150533FBEC557D4CDCF214ADD00C29B681B8B8A9175F338F9DA ====

foobar2000 1.2.6 / Dynamic Range Meter 1.1.1
log date: 2015-05-22 21:34:01

--------------------------------------------------------------------------------
Analyzed: John Verity Band / Live At Bosky
--------------------------------------------------------------------------------

DR Peak RMS Duration Track
--------------------------------------------------------------------------------
DR10 -0.08 dB -11.18 dB 3:48 01-Nothings Changed
DR10 -0.08 dB -12.55 dB 6:02 02-Say Why
DR9 -0.08 dB -10.97 dB 3:12 03-I Just Wanna Make Love to You
DR9 -0.08 dB -11.71 dB 4:37 04-I Put a Spell On You
DR9 -0.08 dB -10.50 dB 3:43 05-The Blues Had a Baby
DR10 -0.08 dB -11.24 dB 3:33 06-Route 66
DR10 -0.08 dB -10.87 dB 5:17 07-Johnny B Goode
DR11 -0.08 dB -12.63 dB 5:23 08-While My Guitar Gently Weeps
DR9 -0.08 dB -11.32 dB 5:26 09-Help Me
--------------------------------------------------------------------------------

Number of tracks: 9
Official DR value: DR10

Samplerate: 44100 Hz
Channels: 2
Bits per sample: 16
Bitrate: 965 kbps
Codec: FLAC
================================================================================

[CUETools log; Date: 22.05.2015 21:34:34; Version: 2.1.5]
[CTDB TOCID: yTnhFeC1WDIScsrfLWh2wykeSCs-] disk not present in database.
[AccurateRip ID: 000d8c42-0063aa1c-71099c09] disk not present in database.

Track Peak [ CRC32 ] [W/O NULL] [ LOG ]
-- 99,0 [1EA39D2C] [F8262D87] CRC32
01 99,0 [A8472A33] [360086AA]
02 99,0 [34B67942] [578193E3]
03 99,0 [FA80BB01] [E4D1D0BF]
04 99,0 [65D9ECB0] [147AB89B]
05 99,0 [25B1634D] [AD9D2BCC]
06 99,0 [2D75DA7A] [ADBEA310]
07 99,0 8578714 [07D05579]
08 99,0 [FF9BBA29] [247D7D7E]
09 99,0 [938F7D20] [D81A5B89]
Download link:



Links are Interchangeable - No Password - Single Extraction

uploaded


Rapidgator.net
Site BBcode/HTML Code:

Tags to an Article: John, Verity, Band, Live, Bosky

Dear visitor, you went to the site as unregistered user.
We recommend you Sign up or Login to website under your name.
Information
Would you like to leave your comment? Please Login to your account to leave comments. Don't have an account? You can create a free account now.