» » Pink Floyd - Anthology I: A Collection of Rare Tracks 1965-1983 (1999)



Information of news
23-05-2015, 08:42

Pink Floyd - Anthology I: A Collection of Rare Tracks 1965-1983 (1999)

Category: Music


Pink Floyd - Anthology I: A Collection of Rare Tracks 1965-1983 (1999)

Pink Floyd - Anthology I: A Collection of Rare Tracks 1965-1983 (1999)
XLD | Flac(Image) + Cue + Log & MP3 CBR 320Kbps
2CD | Highland, HL274/75 | Unofficial Release | ~ 878 or 345 Mb | Scans Included
Psychedelic / Progressive Rock

A collection of Pink Floyd rare tracks from 1965-1983. Includes nice singles, alternate demo mixes, live performances, etc.
Tracklist CD1:

01. Lucy Leave (acetate single from the archives 1965)
02. King Bee (acetate single from the archives 1965)
03. Candy and a Currant Bun (previously unreleased stereo mix)
04. Flaming (alternate mix from US single version)
05. Apples and Oranges (alternate stereo mix)
06. Astronomy Domine (promotional released alternate stereo mix)
07. It Would Be So Nice (original single version mono mix)
08. Scream Thy Last Scream (previously unreleased song from October 1967 sessions)
09. Vegetable Man (previously unreleased song from December 1967 sessions)
10. Julia Dream (original single version mono mix)
11. Set the Controls for the Heart of the Sun (original mono mix from "A Saucerful of Secrets" UK album)
12. Corporal Cregg (original mono mix from "A Saucerful of Secrets" UK album)
13. Jugband Blues (original mono mix from "A Saucerful of Secrets" UK album)
14. Point Me at the Sky (original single version mono mix)
15. Careful with That Axe, Eugene (original single version mono mix)
16. Main Theme from "More" (alternate mix from the movie soundtrack "More")
17. Seabirds (alternate mix from the movie soundtrack "More")
18. Cymbaline (alternate mix from the movie soundtrack "More")
19. Embryo (studio remix version from "Works" US album)

X Lossless Decoder version 20140504 (147.0)

XLD extraction logfile from 2014-07-19 15:01:29 -0700

Pink Floyd / Anthology I

Used drive : TSSTcorp BDDVDW SE-506BB (revision TS00)
Media type : CD-Recordable

Ripper mode : XLD Secure Ripper
Disable audio cache : OK for the drive with a cache less than 1375KiB
Make use of C2 pointers : NO
Read offset correction : 6
Max retry count : 100
Gap status : Analyzed, Appended (except HTOA)

TOC of the extracted CD
Track | Start | Length | Start sector | End sector
---------------------------------------------------------
1 | 00:00:00 | 02:54:62 | 0 | 13111
2 | 02:54:62 | 03:06:14 | 13112 | 27075
3 | 06:01:01 | 02:44:37 | 27076 | 39412
4 | 08:45:38 | 02:47:52 | 39413 | 51989
5 | 11:33:15 | 03:06:72 | 51990 | 66011
6 | 14:40:12 | 04:13:70 | 66012 | 85056
7 | 18:54:07 | 03:46:19 | 85057 | 102025
8 | 22:40:26 | 04:44:35 | 102026 | 123360
9 | 27:24:61 | 02:32:12 | 123361 | 134772
10 | 29:56:73 | 02:34:34 | 134773 | 146356
11 | 32:31:32 | 05:33:22 | 146357 | 171353
12 | 38:04:54 | 04:06:52 | 171354 | 189855
13 | 42:11:31 | 03:05:10 | 189856 | 203740
14 | 45:16:41 | 03:35:42 | 203741 | 219907
15 | 48:52:08 | 05:47:24 | 219908 | 245956
16 | 54:39:32 | 03:11:35 | 245957 | 260316
17 | 57:50:67 | 03:52:07 | 260317 | 277723
18 | 61:42:74 | 05:23:47 | 277724 | 301995
19 | 67:06:46 | 04:37:53 | 301996 | 322823

AccurateRip Summary
Disc not found in AccurateRip DB.

All Tracks
Album gain : -9.60 dB
Peak : 1.000000
Statistics
Read error : 0
Jitter error (maybe fixed) : 8
Retry sector count : 1281
Damaged sector count : 0

Track 01
Filename : /Volumes/Hollywood and Vine/BT/Anthology I/Pink Floyd - Anthology I (1965) [FLAC]/01 Lucy Leave.flac
Pre-gap length : 00:02:00

Track gain : -9.09 dB
Peak : 1.000000
CRC32 hash (test run) : F09303A5
CRC32 hash : F09303A5
CRC32 hash (skip zero) : 30369BC7
AccurateRip v1 signature : 1E853846
AccurateRip v2 signature : C8B62772
->Track not present in AccurateRip database.
Statistics
Read error : 0
Jitter error (maybe fixed) : 0
Retry sector count : 0
Damaged sector count : 0

Track 02
Filename : /Volumes/Hollywood and Vine/BT/Anthology I/Pink Floyd - Anthology I (1965) [FLAC]/02 King Bee.flac
Pre-gap length : 00:01:74

Track gain : -8.23 dB
Peak : 1.000000
CRC32 hash (test run) : 8B1A0D20
CRC32 hash : 8B1A0D20
CRC32 hash (skip zero) : 3EA83917
AccurateRip v1 signature : C142E4BD
AccurateRip v2 signature : 66FBCCAD
->Track not present in AccurateRip database.
Statistics
Read error : 0
Jitter error (maybe fixed) : 0
Retry sector count : 0
Damaged sector count : 0

Track 03
Filename : /Volumes/Hollywood and Vine/BT/Anthology I/Pink Floyd - Anthology I (1967) [FLAC]/03 Candy and a Currant Bun.flac
Pre-gap length : 00:01:74

Track gain : -10.27 dB
Peak : 0.966095
CRC32 hash (test run) : F26DC97E
CRC32 hash : F26DC97E
CRC32 hash (skip zero) : 779FD3A1
AccurateRip v1 signature : 94908E4B
AccurateRip v2 signature : 90A8F983
->Track not present in AccurateRip database.
Statistics
Read error : 0
Jitter error (maybe fixed) : 0
Retry sector count : 1
Damaged sector count : 0

Track 04
Filename : /Volumes/Hollywood and Vine/BT/Anthology I/Pink Floyd - Anthology I (1967) [FLAC]/04 Flaming.flac
Pre-gap length : 00:01:74

Track gain : -10.10 dB
Peak : 0.981842
CRC32 hash (test run) : AC54BF35
CRC32 hash : AC54BF35
CRC32 hash (skip zero) : B6AB7730
AccurateRip v1 signature : 0E22AE20
AccurateRip v2 signature : B9DCC46D
->Track not present in AccurateRip database.
Statistics
Read error : 0
Jitter error (maybe fixed) : 0
Retry sector count : 0
Damaged sector count : 0

Track 05
Filename : /Volumes/Hollywood and Vine/BT/Anthology I/Pink Floyd - Anthology I (1967) [FLAC]/05 Apples and Oranges.flac
Pre-gap length : 00:01:74

Track gain : -11.48 dB
Peak : 0.968719
CRC32 hash (test run) : C6DAAE7C
CRC32 hash : C6DAAE7C
CRC32 hash (skip zero) : AD22EE28
AccurateRip v1 signature : 6AAC215B
AccurateRip v2 signature : F65FFD65
->Track not present in AccurateRip database.
Statistics
Read error : 0
Jitter error (maybe fixed) : 1
Retry sector count : 0
Damaged sector count : 0

Track 06
Filename : /Volumes/Hollywood and Vine/BT/Anthology I/Pink Floyd - Anthology I (1967) [FLAC]/06 Astronomy Domine.flac
Pre-gap length : 00:01:74

Track gain : -6.67 dB
Peak : 0.983063
CRC32 hash (test run) : 747AF4F3
CRC32 hash : 747AF4F3
CRC32 hash (skip zero) : 25A2D0C3
AccurateRip v1 signature : 12016E2F
AccurateRip v2 signature : 8F59FB9D
->Track not present in AccurateRip database.
Statistics
Read error : 0
Jitter error (maybe fixed) : 1
Retry sector count : 450
Damaged sector count : 0

Track 07
Filename : /Volumes/Hollywood and Vine/BT/Anthology I/Pink Floyd - Anthology I (1967) [FLAC]/07 It Would Be So Nice.flac
Pre-gap length : 00:01:74

Track gain : -8.09 dB
Peak : 1.000000
CRC32 hash (test run) : 90674DDD
CRC32 hash : 90674DDD
CRC32 hash (skip zero) : 48530CAC
AccurateRip v1 signature : EECC95FC
AccurateRip v2 signature : C495C838
->Track not present in AccurateRip database.
Statistics
Read error : 0
Jitter error (maybe fixed) : 0
Retry sector count : 0
Damaged sector count : 0

Track 08
Filename : /Volumes/Hollywood and Vine/BT/Anthology I/Pink Floyd - Anthology I (1967) [FLAC]/08 Scream Thy Last Scream.flac
Pre-gap length : 00:01:74

Track gain : -11.62 dB
Peak : 0.995209
CRC32 hash (test run) : FFA016AC
CRC32 hash : FFA016AC
CRC32 hash (skip zero) : F0157524
AccurateRip v1 signature : D7EBEAA2
AccurateRip v2 signature : D4072A1F
->Track not present in AccurateRip database.
Statistics
Read error : 0
Jitter error (maybe fixed) : 1
Retry sector count : 425
Damaged sector count : 0

Track 09
Filename : /Volumes/Hollywood and Vine/BT/Anthology I/Pink Floyd - Anthology I (1967) [FLAC]/09 Vegetable Man.flac
Pre-gap length : 00:01:74

Track gain : -9.77 dB
Peak : 0.969269
CRC32 hash (test run) : 0BC320EC
CRC32 hash : 0BC320EC
CRC32 hash (skip zero) : D6C7C98C
AccurateRip v1 signature : 7F6FF352
AccurateRip v2 signature : 03C9F5BF
->Track not present in AccurateRip database.
Statistics
Read error : 0
Jitter error (maybe fixed) : 0
Retry sector count : 0
Damaged sector count : 0

Track 10
Filename : /Volumes/Hollywood and Vine/BT/Anthology I/Pink Floyd - Anthology I (1968) [FLAC]/10 Julia Dream.flac
Pre-gap length : 00:01:74

Track gain : -8.06 dB
Peak : 0.968231
CRC32 hash (test run) : CFEAD1EF
CRC32 hash : CFEAD1EF
CRC32 hash (skip zero) : E18854B0
AccurateRip v1 signature : A4741023
AccurateRip v2 signature : C55AC9C7
->Track not present in AccurateRip database.
Statistics
Read error : 0
Jitter error (maybe fixed) : 0
Retry sector count : 0
Damaged sector count : 0

Track 11
Filename : /Volumes/Hollywood and Vine/BT/Anthology I/Pink Floyd - Anthology I (1968) [FLAC]/11 Set the Controls for the Heart of the Sun.flac
Pre-gap length : 00:01:74

Track gain : -6.60 dB
Peak : 0.973633
CRC32 hash (test run) : 21E3B1D4
CRC32 hash : 21E3B1D4
CRC32 hash (skip zero) : 4FF0E9AB
AccurateRip v1 signature : 10139D3F
AccurateRip v2 signature : 78B8DDF1
->Track not present in AccurateRip database.
Statistics
Read error : 0
Jitter error (maybe fixed) : 0
Retry sector count : 0
Damaged sector count : 0

Track 12
Filename : /Volumes/Hollywood and Vine/BT/Anthology I/Pink Floyd - Anthology I (1968) [FLAC]/12 Corporal Clegg.flac
Pre-gap length : 00:01:74

Track gain : -9.08 dB
Peak : 0.979004
CRC32 hash (test run) : E25DC4AC
CRC32 hash : E25DC4AC
CRC32 hash (skip zero) : 4EE63E60
AccurateRip v1 signature : 7314CE7F
AccurateRip v2 signature : 71AA640C
->Track not present in AccurateRip database.
Statistics
Read error : 0
Jitter error (maybe fixed) : 0
Retry sector count : 0
Damaged sector count : 0

Track 13
Filename : /Volumes/Hollywood and Vine/BT/Anthology I/Pink Floyd - Anthology I (1968) [FLAC]/13 Jugband Blues.flac
Pre-gap length : 00:01:74

Track gain : -7.74 dB
Peak : 0.972412
CRC32 hash (test run) : 61B28B18
CRC32 hash : 61B28B18
CRC32 hash (skip zero) : D7160779
AccurateRip v1 signature : 6AE024E5
AccurateRip v2 signature : AA6A2A04
->Track not present in AccurateRip database.
Statistics
Read error : 0
Jitter error (maybe fixed) : 0
Retry sector count : 0
Damaged sector count : 0

Track 14
Filename : /Volumes/Hollywood and Vine/BT/Anthology I/Pink Floyd - Anthology I (1968) [FLAC]/14 Point Me at the Sky.flac
Pre-gap length : 00:01:74

Track gain : -9.04 dB
Peak : 0.982941
CRC32 hash (test run) : F3F4A0F0
CRC32 hash : F3F4A0F0
CRC32 hash (skip zero) : DCD4A869
AccurateRip v1 signature : BFD52D9A
AccurateRip v2 signature : DC1188ED
->Track not present in AccurateRip database.
Statistics
Read error : 0
Jitter error (maybe fixed) : 0
Retry sector count : 0
Damaged sector count : 0

Track 15
Filename : /Volumes/Hollywood and Vine/BT/Anthology I/Pink Floyd - Anthology I (1968) [FLAC]/15 Careful With That Axe Eugene.flac
Pre-gap length : 00:01:74

Track gain : -9.50 dB
Peak : 1.000000
CRC32 hash (test run) : D050CC44
CRC32 hash : D050CC44
CRC32 hash (skip zero) : E8D6F64A
AccurateRip v1 signature : EFF2A42D
AccurateRip v2 signature : 67FA3377
->Track not present in AccurateRip database.
Statistics
Read error : 0
Jitter error (maybe fixed) : 2
Retry sector count : 0
Damaged sector count : 0

Track 16
Filename : /Volumes/Hollywood and Vine/BT/Anthology I/Pink Floyd - Anthology I (1969) [FLAC]/16 Main Theme from More.flac
Pre-gap length : 00:01:74

Track gain : -7.10 dB
Peak : 0.980957
CRC32 hash (test run) : 0BA7FAEB
CRC32 hash : 0BA7FAEB
CRC32 hash (skip zero) : 5ED1195C
AccurateRip v1 signature : 9B715182
AccurateRip v2 signature : 45310991
->Track not present in AccurateRip database.
Statistics
Read error : 0
Jitter error (maybe fixed) : 1
Retry sector count : 386
Damaged sector count : 0

Track 17
Filename : /Volumes/Hollywood and Vine/BT/Anthology I/Pink Floyd - Anthology I (1969) [FLAC]/17 Seabirds.flac
Pre-gap length : 00:01:74

Track gain : -6.03 dB
Peak : 0.953674
CRC32 hash (test run) : 90175328
CRC32 hash : 90175328
CRC32 hash (skip zero) : 793F9EE0
AccurateRip v1 signature : 11D1C987
AccurateRip v2 signature : BC25B426
->Track not present in AccurateRip database.
Statistics
Read error : 0
Jitter error (maybe fixed) : 0
Retry sector count : 0
Damaged sector count : 0

Track 18
Filename : /Volumes/Hollywood and Vine/BT/Anthology I/Pink Floyd - Anthology I (1969) [FLAC]/18 Cymbaline.flac
Pre-gap length : 00:01:74

Track gain : -6.33 dB
Peak : 0.953308
CRC32 hash (test run) : D3FE29F3
CRC32 hash : D3FE29F3
CRC32 hash (skip zero) : D71E2CA5
AccurateRip v1 signature : EB9124FF
AccurateRip v2 signature : 1C89EB6B
->Track not present in AccurateRip database.
Statistics
Read error : 0
Jitter error (maybe fixed) : 0
Retry sector count : 19
Damaged sector count : 0

Track 19
Filename : /Volumes/Hollywood and Vine/BT/Anthology I/Pink Floyd - Anthology I (1970) [FLAC]/19 Embryo.flac
Pre-gap length : 00:01:74

Track gain : -7.17 dB
Peak : 0.930450
CRC32 hash (test run) : 62B169C0
CRC32 hash : 62B169C0
CRC32 hash (skip zero) : E121063F
AccurateRip v1 signature : 9D29BD7B
AccurateRip v2 signature : 11F9DF11
->Track not present in AccurateRip database.
Statistics
Read error : 0
Jitter error (maybe fixed) : 2
Retry sector count : 0
Damaged sector count : 0

No errors occurred

End of status report

foobar2000 1.2.9 / Dynamic Range Meter 1.1.1
log date: 2015-05-22 22:03:29

--------------------------------------------------------------------------------
Analyzed: Pink Floyd / Anthology I
--------------------------------------------------------------------------------

DR Peak RMS Duration Track
--------------------------------------------------------------------------------
DR7 0.00 dB -7.70 dB 2:55 01-Lucy Leave
DR7 0.00 dB -8.79 dB 3:06 02-King Bee
DR7 -0.30 dB -7.97 dB 2:44 03-Candy and a Currant Bun
DR6 -0.16 dB -8.01 dB 2:48 04-Flaming
DR7 -0.28 dB -9.05 dB 3:07 05-Apples and Oranges
DR8 -0.15 dB -10.26 dB 4:14 06-Astronomy Domine
DR7 0.00 dB -8.27 dB 3:46 07-It Would Be So Nice
DR6 -0.04 dB -7.73 dB 4:44 08-Scream Thy Last Scream
DR7 -0.27 dB -8.38 dB 2:32 09-Vegetable Man
DR6 -0.28 dB -8.25 dB 2:34 10-Julia Dream
DR8 -0.23 dB -9.76 dB 5:33 11-Set the Controls for the Heart of the Sun
DR7 -0.18 dB -9.10 dB 4:07 12-Corporal Clegg
DR8 -0.24 dB -11.01 dB 3:05 13-Jugband Blues
DR6 -0.15 dB -8.87 dB 3:36 14-Point Me at the Sky
DR6 0.00 dB -8.02 dB 5:47 15-Careful With That Axe Eugene
DR8 -0.17 dB -10.13 dB 3:11 16-Main Theme from More
DR11 -0.41 dB -16.29 dB 3:52 17-Seabirds
DR10 -0.42 dB -13.55 dB 5:24 18-Cymbaline
DR6 -0.63 dB -8.72 dB 4:38 19-Embryo
--------------------------------------------------------------------------------

Number of tracks: 19
Official DR value: DR7

Samplerate: 44100 Hz
Channels: 2
Bits per sample: 16
Bitrate: 808 kbps
Codec: FLAC

[CUETools log; Date: 22.05.2015 22:03:39; Version: 2.1.4]
[CTDB TOCID: z9wGe.tPatWP1Cmne2xBOXJfL.s-] found.
Track | CTDB Status
1 | (1/1) Accurately ripped
2 | (1/1) Accurately ripped
3 | (1/1) Accurately ripped
4 | (1/1) Accurately ripped
5 | (1/1) Accurately ripped
6 | (1/1) Accurately ripped
7 | (1/1) Accurately ripped
8 | (1/1) Accurately ripped
9 | (1/1) Accurately ripped
10 | (1/1) Accurately ripped
11 | (1/1) Accurately ripped
12 | (1/1) Accurately ripped
13 | (1/1) Accurately ripped
14 | (1/1) Accurately ripped
15 | (1/1) Accurately ripped
16 | (1/1) Accurately ripped
17 | (1/1) Accurately ripped
18 | (1/1) Accurately ripped
19 | (1/1) Accurately ripped
[AccurateRip ID: 002d83c6-028a7c03-2110d013] disk not present in database.

Track Peak [ CRC32 ] [W/O NULL]
-- 100,0 [2B5E1355] [15283908]
01 100,0 [F09303A5] [30369BC7]
02 100,0 [8B1A0D20] [3EA83917]
03 96,6 [F26DC97E] [779FD3A1]
04 98,1 [AC54BF35] 6AB7730
05 96,8 [C6DAAE7C] [AD22EE28]
06 98,3 [747AF4F3] [25A2D0C3]
07 100,0 [90674DDD] [48530CAC]
08 99,5 [FFA016AC] [F0157524]
09 96,9 [0BC320EC] [D6C7C98C]
10 96,8 [CFEAD1EF] [E18854B0]
11 97,3 [21E3B1D4] [4FF0E9AB]
12 97,9 [E25DC4AC] [4EE63E60]
13 97,2 [61B28B18] [D7160779]
14 98,2 [F3F4A0F0] [DCD4A869]
15 100,0 [D050CC44] [E8D6F64A]
16 98,0 [0BA7FAEB] [5ED1195C]
17 95,3 [90175328] [793F9EE0]
18 95,3 [D3FE29F3] [D71E2CA5]
19 93,0 [62B169C0] [E121063F]

Tracklist CD2:

01. Heart Beat, Pig Meat (alternate version from the movie soundtrack "Zabriskie Point")
02. Instrumentals (alternate version from the movie soundtrack "Zabriskie Point")
03. Clumbling Land (alternate version from the movie soundtrack "Zabriskie Point")
04. Come In Number 51, Your Time Is Up (alternate version from the movie soundtrack "Zabriskie Point")
05. One of These Days (studio remix version from "Works" US album)
06. Mademoiselle Nobs (unreleased track from the soundtrack "Pink Floyd at Pompeii")
07. Money (acoustic version solo by Roger Waters)
08. Time (alternate mix)
09. Us and Them (alternate mix)
10. Brain Damage (quadraphonic mix)
11. Eclipse (quadraphonic mix)
12. Shine On You Crazy Diamond (promotional released edit version)
13. Pigs on the Wing (Parts One and Two) (connected version from US 8-track tape release)
14. Comfortably Numb (demo version guitar and vocal solo by David Gilmour)
15. Another Brick in the Wall (Part Two) (original single version)
16. Money (edit version from promotional DJ copy)
17. When the Tigers Broke Free (original single version)
18. Bring the Boys Back Home (original single version)
19. Not Now John (original single remix version)
20. The Hero's Return (Parts One and Two) (original single remix long version)

X Lossless Decoder version 20140504 (147.0)

XLD extraction logfile from 2014-07-19 15:53:30 -0700

Pink Floyd / Anthology I

Used drive : TSSTcorp BDDVDW SE-506BB (revision TS00)
Media type : CD-Recordable

Ripper mode : XLD Secure Ripper
Disable audio cache : OK for the drive with a cache less than 1375KiB
Make use of C2 pointers : NO
Read offset correction : 6
Max retry count : 100
Gap status : Analyzed, Appended (except HTOA)

TOC of the extracted CD
Track | Start | Length | Start sector | End sector
---------------------------------------------------------
1 | 00:00:00 | 02:57:40 | 0 | 13314
2 | 02:57:40 | 01:29:63 | 13315 | 20052
3 | 04:27:28 | 00:38:65 | 20053 | 22967
4 | 05:06:18 | 03:55:17 | 22968 | 40609
5 | 09:01:35 | 06:02:06 | 40610 | 67765
6 | 15:03:41 | 01:50:27 | 67766 | 76042
7 | 16:53:68 | 01:42:22 | 76043 | 83714
8 | 18:36:15 | 06:16:67 | 83715 | 111981
9 | 24:53:07 | 05:33:72 | 111982 | 137028
10 | 30:27:04 | 03:49:16 | 137029 | 154219
11 | 34:16:20 | 02:05:10 | 154220 | 163604
12 | 36:21:30 | 06:13:52 | 163605 | 191631
13 | 42:35:07 | 03:23:40 | 191632 | 206896
14 | 45:58:47 | 02:34:65 | 206897 | 218511
15 | 48:33:37 | 03:14:73 | 218512 | 233134
16 | 51:48:35 | 05:38:57 | 233135 | 258541
17 | 57:27:17 | 02:54:50 | 258542 | 271641
18 | 60:21:67 | 01:49:27 | 271642 | 279843
19 | 62:11:19 | 04:29:40 | 279844 | 300058
20 | 66:40:59 | 03:53:32 | 300059 | 317565

AccurateRip Summary
Disc not found in AccurateRip DB.

All Tracks
Album gain : -8.88 dB
Peak : 1.000000
Statistics
Read error : 0
Jitter error (maybe fixed) : 0
Retry sector count : 0
Damaged sector count : 0

Track 01
Filename : /Volumes/Hollywood and Vine/BT/Anthology I/Pink Floyd - Anthology I (1999) [FLAC]/Disc 2/Pink Floyd - Anthology I (1969) [FLAC]/01 Heart Beat, Pig Meat.flac
Pre-gap length : 00:02:00

Track gain : -6.45 dB
Peak : 1.000000
CRC32 hash (test run) : 3F9B4B6F
CRC32 hash : 3F9B4B6F
CRC32 hash (skip zero) : F771D456
AccurateRip v1 signature : 648C2265
AccurateRip v2 signature : A6548DF1
->Track not present in AccurateRip database.
Statistics
Read error : 0
Jitter error (maybe fixed) : 0
Retry sector count : 0
Damaged sector count : 0

Track 02
Filename : /Volumes/Hollywood and Vine/BT/Anthology I/Pink Floyd - Anthology I (1999) [FLAC]/Disc 2/Pink Floyd - Anthology I (1969) [FLAC]/02 Instrumentals.flac
Pre-gap length : 00:01:74

Track gain : -12.06 dB
Peak : 1.000000
CRC32 hash (test run) : 77418019
CRC32 hash : 77418019
CRC32 hash (skip zero) : D03B79C5
AccurateRip v1 signature : 88B8D611
AccurateRip v2 signature : AE96D061
->Track not present in AccurateRip database.
Statistics
Read error : 0
Jitter error (maybe fixed) : 0
Retry sector count : 0
Damaged sector count : 0

Track 03
Filename : /Volumes/Hollywood and Vine/BT/Anthology I/Pink Floyd - Anthology I (1999) [FLAC]/Disc 2/Pink Floyd - Anthology I (1969) [FLAC]/03 Clumbling Land.flac
Pre-gap length : 00:01:74

Track gain : -3.98 dB
Peak : 0.908234
CRC32 hash (test run) : DA4AC176
CRC32 hash : DA4AC176
CRC32 hash (skip zero) : DB30ABAB
AccurateRip v1 signature : 7D07C0F5
AccurateRip v2 signature : 3912E628
->Track not present in AccurateRip database.
Statistics
Read error : 0
Jitter error (maybe fixed) : 0
Retry sector count : 0
Damaged sector count : 0

Track 04
Filename : /Volumes/Hollywood and Vine/BT/Anthology I/Pink Floyd - Anthology I (1999) [FLAC]/Disc 2/Pink Floyd - Anthology I (1969) [FLAC]/04 Come In Number 51, Your Time Is Up.flac
Pre-gap length : 00:01:74

Track gain : -10.67 dB
Peak : 1.000000
CRC32 hash (test run) : 542D5C7F
CRC32 hash : 542D5C7F
CRC32 hash (skip zero) : 888EEAF7
AccurateRip v1 signature : 4EF09A13
AccurateRip v2 signature : 1A6D8FCE
->Track not present in AccurateRip database.
Statistics
Read error : 0
Jitter error (maybe fixed) : 0
Retry sector count : 0
Damaged sector count : 0

Track 05
Filename : /Volumes/Hollywood and Vine/BT/Anthology I/Pink Floyd - Anthology I (1999) [FLAC]/Disc 2/Pink Floyd - Anthology I (1971) [FLAC]/05 One of These Days.flac
Pre-gap length : 00:01:74

Track gain : -9.74 dB
Peak : 1.000000
CRC32 hash (test run) : 379D1E83
CRC32 hash : 379D1E83
CRC32 hash (skip zero) : 617A16D2
AccurateRip v1 signature : 68DEE08E
AccurateRip v2 signature : 101BB944
->Track not present in AccurateRip database.
Statistics
Read error : 0
Jitter error (maybe fixed) : 0
Retry sector count : 0
Damaged sector count : 0

Track 06
Filename : /Volumes/Hollywood and Vine/BT/Anthology I/Pink Floyd - Anthology I (1999) [FLAC]/Disc 2/Pink Floyd - Anthology I (1972) [FLAC]/06 Mademoiselle Knobs.flac
Pre-gap length : 00:01:74

Track gain : -8.93 dB
Peak : 1.000000
CRC32 hash (test run) : E7B2B482
CRC32 hash : E7B2B482
CRC32 hash (skip zero) : A4147D8C
AccurateRip v1 signature : 4745B906
AccurateRip v2 signature : 1078EDFD
->Track not present in AccurateRip database.
Statistics
Read error : 0
Jitter error (maybe fixed) : 0
Retry sector count : 0
Damaged sector count : 0

Track 07
Filename : /Volumes/Hollywood and Vine/BT/Anthology I/Pink Floyd - Anthology I (1999) [FLAC]/Disc 2/Pink Floyd - Anthology I (1973) [FLAC]/07 Money.flac
Pre-gap length : 00:01:74

Track gain : -7.51 dB
Peak : 0.941681
CRC32 hash (test run) : ED478484
CRC32 hash : ED478484
CRC32 hash (skip zero) : 14B489AC
AccurateRip v1 signature : 6C6B76B5
AccurateRip v2 signature : 4EF74CC3
->Track not present in AccurateRip database.
Statistics
Read error : 0
Jitter error (maybe fixed) : 0
Retry sector count : 0
Damaged sector count : 0

Track 08
Filename : /Volumes/Hollywood and Vine/BT/Anthology I/Pink Floyd - Anthology I (1999) [FLAC]/Disc 2/Pink Floyd - Anthology I (1973) [FLAC]/08 Time.flac
Pre-gap length : 00:01:74

Track gain : -8.16 dB
Peak : 1.000000
CRC32 hash (test run) : 0D962F5F
CRC32 hash : 0D962F5F
CRC32 hash (skip zero) : 72F929DC
AccurateRip v1 signature : 71A27C3B
AccurateRip v2 signature : 4D521F51
->Track not present in AccurateRip database.
Statistics
Read error : 0
Jitter error (maybe fixed) : 0
Retry sector count : 0
Damaged sector count : 0

Track 09
Filename : /Volumes/Hollywood and Vine/BT/Anthology I/Pink Floyd - Anthology I (1999) [FLAC]/Disc 2/Pink Floyd - Anthology I (1973) [FLAC]/09 Us and Them.flac
Pre-gap length : 00:01:74

Track gain : -9.42 dB
Peak : 0.970154
CRC32 hash (test run) : 88D248C9
CRC32 hash : 88D248C9
CRC32 hash (skip zero) : A7D8A8FA
AccurateRip v1 signature : 778C6662
AccurateRip v2 signature : 59392324
->Track not present in AccurateRip database.
Statistics
Read error : 0
Jitter error (maybe fixed) : 0
Retry sector count : 0
Damaged sector count : 0

Track 10
Filename : /Volumes/Hollywood and Vine/BT/Anthology I/Pink Floyd - Anthology I (1999) [FLAC]/Disc 2/Pink Floyd - Anthology I (1973) [FLAC]/10 Brain Damage.flac
Pre-gap length : 00:01:74

Track gain : -7.77 dB
Peak : 0.982086
CRC32 hash (test run) : 9DACCCA7
CRC32 hash : 9DACCCA7
CRC32 hash (skip zero) : B0AD258C
AccurateRip v1 signature : C57BD71F
AccurateRip v2 signature : 4F0C2E73
->Track not present in AccurateRip database.
Statistics
Read error : 0
Jitter error (maybe fixed) : 0
Retry sector count : 0
Damaged sector count : 0

Track 11
Filename : /Volumes/Hollywood and Vine/BT/Anthology I/Pink Floyd - Anthology I (1999) [FLAC]/Disc 2/Pink Floyd - Anthology I (1973) [FLAC]/11 Eclipse.flac
Pre-gap length : 00:01:74

Track gain : -8.72 dB
Peak : 0.985992
CRC32 hash (test run) : F4374B1F
CRC32 hash : F4374B1F
CRC32 hash (skip zero) : B9F90A91
AccurateRip v1 signature : 1A97B879
AccurateRip v2 signature : 52829168
->Track not present in AccurateRip database.
Statistics
Read error : 0
Jitter error (maybe fixed) : 0
Retry sector count : 0
Damaged sector count : 0

Track 12
Filename : /Volumes/Hollywood and Vine/BT/Anthology I/Pink Floyd - Anthology I (1999) [FLAC]/Disc 2/Pink Floyd - Anthology I (1975) [FLAC]/12 Shine On You Crazy Diamond.flac
Pre-gap length : 00:01:74

Track gain : -7.91 dB
Peak : 0.960571
CRC32 hash (test run) : E75F85C5
CRC32 hash : E75F85C5
CRC32 hash (skip zero) : EF57CE60
AccurateRip v1 signature : 458870BB
AccurateRip v2 signature : DA96F012
->Track not present in AccurateRip database.
Statistics
Read error : 0
Jitter error (maybe fixed) : 0
Retry sector count : 0
Damaged sector count : 0

Track 13
Filename : /Volumes/Hollywood and Vine/BT/Anthology I/Pink Floyd - Anthology I (1999) [FLAC]/Disc 2/Pink Floyd - Anthology I (1977) [FLAC]/13 Pigs on the Wing (Part One and Two).flac
Pre-gap length : 00:01:74

Track gain : -6.08 dB
Peak : 0.961761
CRC32 hash (test run) : BA92C7CB
CRC32 hash : BA92C7CB
CRC32 hash (skip zero) : 8F7B3B92
AccurateRip v1 signature : C9EBA61B
AccurateRip v2 signature : 112D0C9C
->Track not present in AccurateRip database.
Statistics
Read error : 0
Jitter error (maybe fixed) : 0
Retry sector count : 0
Damaged sector count : 0

Track 14
Filename : /Volumes/Hollywood and Vine/BT/Anthology I/Pink Floyd - Anthology I (1999) [FLAC]/Disc 2/Pink Floyd - Anthology I (1979) [FLAC]/14 Comfortably Numb.flac
Pre-gap length : 00:01:74

Track gain : -7.98 dB
Peak : 0.917786
CRC32 hash (test run) : 661A5A22
CRC32 hash : 661A5A22
CRC32 hash (skip zero) : 14F8EA9E
AccurateRip v1 signature : B330D912
AccurateRip v2 signature : 8EF7EF13
->Track not present in AccurateRip database.
Statistics
Read error : 0
Jitter error (maybe fixed) : 0
Retry sector count : 0
Damaged sector count : 0

Track 15
Filename : /Volumes/Hollywood and Vine/BT/Anthology I/Pink Floyd - Anthology I (1999) [FLAC]/Disc 2/Pink Floyd - Anthology I (1979) [FLAC]/15 Another Brick in the Wall (Part Two).flac
Pre-gap length : 00:01:74

Track gain : -7.08 dB
Peak : 0.966248
CRC32 hash (test run) : 8541398A
CRC32 hash : 8541398A
CRC32 hash (skip zero) : BB7323AA
AccurateRip v1 signature : 341ED11F
AccurateRip v2 signature : F47436A9
->Track not present in AccurateRip database.
Statistics
Read error : 0
Jitter error (maybe fixed) : 0
Retry sector count : 0
Damaged sector count : 0

Track 16
Filename : /Volumes/Hollywood and Vine/BT/Anthology I/Pink Floyd - Anthology I (1999) [FLAC]/Disc 2/Pink Floyd - Anthology I (1981) [FLAC]/16 Money.flac
Pre-gap length : 00:01:74

Track gain : -8.18 dB
Peak : 1.000000
CRC32 hash (test run) : ED1F8CC5
CRC32 hash : ED1F8CC5
CRC32 hash (skip zero) : D623830F
AccurateRip v1 signature : 219A34F8
AccurateRip v2 signature : 8477BF5F
->Track not present in AccurateRip database.
Statistics
Read error : 0
Jitter error (maybe fixed) : 0
Retry sector count : 0
Damaged sector count : 0

Track 17
Filename : /Volumes/Hollywood and Vine/BT/Anthology I/Pink Floyd - Anthology I (1999) [FLAC]/Disc 2/Pink Floyd - Anthology I (1979) [FLAC]/17 When the Tigers Broke Free.flac
Pre-gap length : 00:01:74

Track gain : -7.20 dB
Peak : 0.952454
CRC32 hash (test run) : 185C49ED
CRC32 hash : 185C49ED
CRC32 hash (skip zero) : 296C3D43
AccurateRip v1 signature : 9291BF17
AccurateRip v2 signature : 626D3B41
->Track not present in AccurateRip database.
Statistics
Read error : 0
Jitter error (maybe fixed) : 0
Retry sector count : 0
Damaged sector count : 0

Track 18
Filename : /Volumes/Hollywood and Vine/BT/Anthology I/Pink Floyd - Anthology I (1999) [FLAC]/Disc 2/Pink Floyd - Anthology I (1983) [FLAC]/18 Bring the Boys Back Home.flac
Pre-gap length : 00:01:74

Track gain : -7.62 dB
Peak : 0.950653
CRC32 hash (test run) : 01FB5E98
CRC32 hash : 01FB5E98
CRC32 hash (skip zero) : 5EE7522E
AccurateRip v1 signature : DE393A15
AccurateRip v2 signature : E7214EC9
->Track not present in AccurateRip database.
Statistics
Read error : 0
Jitter error (maybe fixed) : 0
Retry sector count : 0
Damaged sector count : 0

Track 19
Filename : /Volumes/Hollywood and Vine/BT/Anthology I/Pink Floyd - Anthology I (1999) [FLAC]/Disc 2/Pink Floyd - Anthology I (1983) [FLAC]/19 Not Now John.flac
Pre-gap length : 00:01:74

Track gain : -9.40 dB
Peak : 0.974731
CRC32 hash (test run) : 71F66F4A
CRC32 hash : 71F66F4A
CRC32 hash (skip zero) : CC621B6C
AccurateRip v1 signature : DE3EB986
AccurateRip v2 signature : 7DB26463
->Track not present in AccurateRip database.
Statistics
Read error : 0
Jitter error (maybe fixed) : 0
Retry sector count : 0
Damaged sector count : 0

Track 20
Filename : /Volumes/Hollywood and Vine/BT/Anthology I/Pink Floyd - Anthology I (1999) [FLAC]/Disc 2/Pink Floyd - Anthology I (1983) [FLAC]/20 The Hero's Return (Part One and Two).flac
Pre-gap length : 00:01:74

Track gain : -7.42 dB
Peak : 0.980469
CRC32 hash (test run) : AA38CBB9
CRC32 hash : AA38CBB9
CRC32 hash (skip zero) : 78A3E83B
AccurateRip v1 signature : 387A4265
AccurateRip v2 signature : BCE213B7
->Track not present in AccurateRip database.
Statistics
Read error : 0
Jitter error (maybe fixed) : 0
Retry sector count : 0
Damaged sector count : 0

No errors occurred

End of status report

foobar2000 1.2.9 / Dynamic Range Meter 1.1.1
log date: 2015-05-22 22:03:54

--------------------------------------------------------------------------------
Analyzed: Pink Floyd / Anthology I
--------------------------------------------------------------------------------

DR Peak RMS Duration Track
--------------------------------------------------------------------------------
DR9 0.00 dB -10.82 dB 2:58 01-Heart Beat, Pig Meat
DR7 0.00 dB -8.72 dB 1:30 02-Instrumentals
DR9 -0.84 dB -14.32 dB 0:39 03-Clumbling Land
DR6 0.00 dB -9.09 dB 3:55 04-Come In Number 51, Your Time Is Up
DR7 0.00 dB -9.89 dB 6:02 05-One of These Days
DR9 0.00 dB -10.61 dB 1:50 06-Mademoiselle Knobs
DR8 -0.52 dB -8.47 dB 1:42 07-Money
DR8 0.00 dB -10.15 dB 6:17 08-Time
DR7 -0.26 dB -9.00 dB 5:34 09-Us and Them
DR8 -0.16 dB -10.68 dB 3:49 10-Brain Damage
DR7 -0.12 dB -9.97 dB 2:05 11-Eclipse
DR8 -0.35 dB -10.18 dB 6:14 12-Shine On You Crazy Diamond
DR9 -0.34 dB -11.17 dB 3:24 13-Pigs on the Wing (Part One and Two)
DR8 -0.75 dB -9.04 dB 2:35 14-Comfortably Numb
DR10 -0.30 dB -11.92 dB 3:15 15-Another Brick in the Wall (Part Two)
DR8 0.00 dB -10.04 dB 5:39 16-Money
DR7 -0.42 dB -10.82 dB 2:55 17-When the Tigers Broke Free
DR7 -0.44 dB -10.35 dB 1:49 18-Bring the Boys Back Home
DR7 -0.22 dB -9.29 dB 4:30 19-Not Now John
DR8 -0.17 dB -10.95 dB 3:53 20-The Hero's Return (Part One and Two)
--------------------------------------------------------------------------------

Number of tracks: 20
Official DR value: DR8

Samplerate: 44100 Hz
Channels: 2
Bits per sample: 16
Bitrate: 849 kbps
Codec: FLAC

[CUETools log; Date: 22.05.2015 22:03:57; Version: 2.1.4]
[CTDB TOCID: JdbdXbA50PWhtm.jXU.twniAEzA-] found.
Track | CTDB Status
1 | (1/1) Accurately ripped
2 | (1/1) Accurately ripped
3 | (1/1) Accurately ripped
4 | (1/1) Accurately ripped
5 | (1/1) Accurately ripped
6 | (1/1) Accurately ripped
7 | (1/1) Accurately ripped
8 | (1/1) Accurately ripped
9 | (1/1) Accurately ripped
10 | (1/1) Accurately ripped
11 | (1/1) Accurately ripped
12 | (1/1) Accurately ripped
13 | (1/1) Accurately ripped
14 | (1/1) Accurately ripped
15 | (1/1) Accurately ripped
16 | (1/1) Accurately ripped
17 | (1/1) Accurately ripped
18 | (1/1) Accurately ripped
19 | (1/1) Accurately ripped
20 | (1/1) Accurately ripped
[AccurateRip ID: 00305b6f-02d7c707-10108a14] disk not present in database.

Track Peak [ CRC32 ] [W/O NULL]
-- 100,0 [C5E9D0C2] [C675E5AA]
01 100,0 [3F9B4B6F] [F771D456]
02 100,0 [77418019] [D03B79C5]
03 90,8 [DA4AC176] [DB30ABAB]
04 100,0 [542D5C7F] [888EEAF7]
05 100,0 [379D1E83] [617A16D2]
06 100,0 [E7B2B482] [A4147D8C]
07 94,1 [ED478484] [14B489AC]
08 100,0 [0D962F5F] [72F929DC]
09 97,0 [88D248C9] [A7D8A8FA]
10 98,2 [9DACCCA7] 0AD258C
11 98,6 [F4374B1F] 9F90A91
12 96,0 [E75F85C5] [EF57CE60]
13 96,1 A92C7CB [8F7B3B92]
14 91,7 [661A5A22] [14F8EA9E]
15 96,6 [8541398A] B7323AA
16 100,0 [ED1F8CC5] [D623830F]
17 95,2 [185C49ED] [296C3D43]
18 95,0 [01FB5E98] [5EE7522E]
19 97,4 [71F66F4A] [CC621B6C]
20 98,0 [AA38CBB9] [78A3E83B]
Download link:



Links are Interchangeable - No Password - Single Extraction

uploaded


Rapidgator.net
Site BBcode/HTML Code:

Tags to an Article: Pink, Floyd, Anthology, Collection, Rare

Dear visitor, you went to the site as unregistered user.
We recommend you Sign up or Login to website under your name.
Information
Would you like to leave your comment? Please Login to your account to leave comments. Don't have an account? You can create a free account now.