» » VA - An Electronic Adventure To AC/DC: High Voltage Electro Club Remixes (2015)



Information of news
23-05-2015, 08:38

VA - An Electronic Adventure To AC/DC: High Voltage Electro Club Remixes (2015)

Category: Music

http://i71.fastpic.ru/big/2015/0522/dc/409eb1b0c4508c2b1da7712a13ab7ddc.jpg

VA - An Electronic Adventure To AC/DC: High Voltage Electro Club Remixes (2015)
EAC Rip | FLAC (Img) + Cue + Log ~ 447 Mb | MP3 CBR320 ~ 141 Mb
Covers Included (JPG, 300 dpi) | RAR 5% Recovery
Hard Rock, Electronica | Collectors Dream Records #CDR DP0023

- Electronic remixes, re-works and re-makes from great acts such as Die Krupps, The Mission, Sigue Sputnik and more. -


http://i70.fastpic.ru/big/2015/0522/ad/299b074fdee45dccef9befd2fc4553ad.jpg

Track List:

01. Back in black (Die Krupps Remix) [04:14]
02. Live wire (Wired Remix) [05:01]
03. Shake a leg (Vincenzo Remix) [05:02]
04. Sin City (Rosetta Stone Remix) [04:38]
05. Whole lotta Rosie (KMFDM Remix) [04:06]
06. For those about to rock (Black Metal Mix) [05:00]
07. Highway to Hell (Sigue Sputnik Remix) [04:47]
08. Shoot to thrill (Fire Mix) [05:02]
09. It's a long way to the top (Mission UK Remix) [05:00]
10. Night prowler (Vitamin DDT Remix) [05:00]
11. TNT (AC/DC Tribute) [03:51]
12. Walk all over you (Synical Remix) [04:49]

Exact Audio Copy V1.0 beta 3 from 29. August 2011

EAC extraction logfile from 18. April 2015, 7:16

Various Artists / An electronic adventure to AC/DC (High Voltage Electro Club Remixes)

Used drive : PLEXTOR DVDR PX-860A Adapter: 4 ID: 0

Read mode : Secure
Utilize accurate stream : Yes
Defeat audio cache : Yes
Make use of C2 pointers : No

Read offset correction : 96
Overread into Lead-In and Lead-Out : No
Fill up missing offset samples with silence : Yes
Delete leading and trailing silent blocks : No
Null samples used in CRC calculations : Yes
Used interface : Installed external ASPI interface

Used output format : User Defined Encoder
Selected bitrate : 128 kBit/s
Quality : High
Add ID3 tag : Yes
Command line compressor : G:\Program Files (x86)\Exact Audio Copy\Flac\flac.exe
Additional command line options : -V -8 -T "Date=%year%" -T "Genre=%genre%" %source%

TOC of the extracted CD

Track | Start | Length | Start sector | End sector
---------------------------------------------------------
1 | 0:00.00 | 4:13.27 | 0 | 19001
2 | 4:13.27 | 5:00.35 | 19002 | 41536
3 | 9:13.62 | 5:01.10 | 41537 | 64121
4 | 14:14.72 | 4:37.17 | 64122 | 84913
5 | 18:52.14 | 4:05.30 | 84914 | 103318
6 | 22:57.44 | 4:59.49 | 103319 | 125792
7 | 27:57.18 | 4:46.57 | 125793 | 147299
8 | 32:44.00 | 5:01.56 | 147300 | 169930
9 | 37:45.56 | 4:59.62 | 169931 | 192417
10 | 42:45.43 | 4:59.09 | 192418 | 214851
11 | 47:44.52 | 3:50.15 | 214852 | 232116
12 | 51:34.67 | 4:48.16 | 232117 | 253732

Range status and errors

Selected range

Filename D:\MUSIC\Various Artists - An electronic adventure to AC,DC (High Voltage Electro Club Remixes).wav

Peak level 100.0 %
Extraction speed 7.5 X
Range quality 99.9 %
Test CRC EC305D24
Copy CRC EC305D24
Copy OK

No errors occurred


AccurateRip summary

Track 1 not present in database
Track 2 not present in database
Track 3 not present in database
Track 4 not present in database
Track 5 not present in database
Track 6 not present in database
Track 7 not present in database
Track 8 not present in database
Track 9 not present in database
Track 10 not present in database
Track 11 not present in database
Track 12 not present in database

None of the tracks are present in the AccurateRip database

End of status report

http://i71.fastpic.ru/big/2015/0522/b3/96b46398f31b8aa6c2f12f6d2c6200b3.jpg

Download link:
Links are Interchangeable - No Password - Single Extraction

uploaded


Rapidgator.net
Site BBcode/HTML Code:

Tags to an Article: Electronic, Adventure, High, Voltage, Electro

Dear visitor, you went to the site as unregistered user.
We recommend you Sign up or Login to website under your name.
Information
Would you like to leave your comment? Please Login to your account to leave comments. Don't have an account? You can create a free account now.