» » Alexandra Stan - Unlocked (2014) [Deluxe Edition, Japan]



Information of news
23-05-2015, 08:21

Alexandra Stan - Unlocked (2014) [Deluxe Edition, Japan]

Category: Music


Alexandra Stan - Unlocked (2014) [Deluxe Edition, Japan]

Alexandra Stan - Unlocked (2014)
EAC Rip | FLAC (Img) + Cue + Log ~ 519 Mb | MP3 CBR320 ~ 164 Mb
Full Scans (JPG, 600 dpi) ~ 121 Mb | RAR 5% Recovery
Progressive House, Dance-Pop, Synth-pop, Reggae Fusion, Europop, Downtempo
Fonogram Records/JVCKENWOOD Viktor Entertainment Corp. #VIZP-133

"Unlocked is the second studio album by Romanian dance/pop and eurodance vocalist Alexandra Stan. An album's standard edition for Japan was released on August 27, 2014 through Victor and Fonogram Records. The album spawns the five singles "Thanks For Leaving", "Cherry Pop", "Dance", "Give Me Your Everything" and "Vanilla Chocolat" featuring Romanian male singer Connect-R. It has an overall progressive house vibe, with it containing dance-pop, synthpop, reggae fusion and europop as well. The Japanese standard edition contains the three bonus singles Zoom Zoom, Digital and Cherry Pop (Sonic-E & Woolhouse remix). The full-length work was released internationally on November 25, 2014 via digital outlets, containing three new tracks..."

The Japanese standard edition contains the three bonus singles Zoom Zoom, Digital and Cherry Pop (Sonic-E & Woolhouse remix). The full-length work was released internationally on November 25, 2014 via digital outlets, containing three new tracks. It hitted the Japanese charts, where it reached in a time period of 2 hours the first position in the Japanese iTunes Dance albums chart, and the Oricon daily chart, where it was already sold in 3,859 shipments. A deluxe edition containing all eighteen tracks was released on December 24, 2014 to Japanese digital markets. Unlocked is avabile as of November 25, 2014 on worldwide stores of iTunes, Spotify, AmazonMusic, Google Play, Xbox Music, Rhapsody, Deezer, iHeartRadio and Zonga. The album became very popular in Asia, where it was strongly promoted through its lead singles Dance and Cherry Pop. Both reached the first position in the Japanese iTunes Download Chart and eventually positions in the Japan Billboard Top 100 Singles Chart.


01. Little Lies [03:43]
02. Cherry Pop [03:13]
03. Dance [03:43]
04. Back To Light [03:36]
05. Give Me Your Everything [03:27]
06. Kiss Me Goodbye [03:20]
07. Digital [03:51]
08. Zoom Zoom [03:27]
09. Vanilla Chocolat [feat. Connect-R] [03:19]
10. Trumpet Blows [02:54]
11. Set Me Free [feat. Grano] [03:55]
12. Celebrate [03:29]
13. Happy [03:31]
14. Thanks For Leaving [03:38]
15. Holding Aces [03:26]
16. Unlocked [08:15]
17. Dance (Grano Remix) [04:20]
18. Cherry Pop (Sonic-E & Woolhouse Remix) [03:06]

Exact Audio Copy V1.0 beta 3 from 29. August 2011

Отчёт EAC об извлечении, выполненном 23. марта 2015, 23:08

Alexandra Stan / Unlocked (Japan)

Дисковод: TSSTcorpCDDVDW TS-L632H Adapter: 1 ID: 0

Режим чтения : Достоверность
Использование точного потока : Да
Отключение кэша аудио : Да
Использование указателей C2 : Нет

Коррекция смещения при чтении : 6
Способность читать области Lead-in и Lead-out : Нет
Заполнение пропущенных сэмплов тишиной : Да
Удаление блоков с тишиной в начале и конце : Нет
При вычислениях CRC использовались нулевые сэмплы : Да
Интерфейс : Встроенный Win32-интерфейс для Win NT/2000

Выходной формат : Пользовательский кодировщик
Выбранный битрейт : 128 kBit/s
Качество : Высокий
Добавление ID3-тега : Нет
Утилита сжатия : C:\Program Files\Exact Audio Copy\Flac\flac.exe
Дополнительные параметры : -V -8 -T "Date=%year%" -T "Genre=%genre%" %source%

TOC извлечённого CD

Трек | Старт | Длительность | Начальный сектор | Конечный сектор
---------------------------------------------------------------------
1 | 0:00.00 | 3:42.56 | 0 | 16705
2 | 3:42.56 | 3:12.59 | 16706 | 31164
3 | 6:55.40 | 3:42.70 | 31165 | 47884
4 | 10:38.35 | 3:35.13 | 47885 | 64022
5 | 14:13.48 | 3:26.06 | 64023 | 79478
6 | 17:39.54 | 3:19.08 | 79479 | 94411
7 | 20:58.62 | 3:50.41 | 94412 | 111702
8 | 24:49.28 | 3:26.67 | 111703 | 127219
9 | 28:16.20 | 3:18.55 | 127220 | 142124
10 | 31:35.00 | 2:54.00 | 142125 | 155174
11 | 34:29.00 | 3:54.67 | 155175 | 172791
12 | 38:23.67 | 3:28.23 | 172792 | 188414
13 | 41:52.15 | 3:30.50 | 188415 | 204214
14 | 45:22.65 | 3:37.34 | 204215 | 220523
15 | 49:00.24 | 3:25.50 | 220524 | 235948
16 | 52:25.74 | 8:14.05 | 235949 | 273003
17 | 60:40.04 | 4:19.21 | 273004 | 292449
18 | 64:59.25 | 3:05.46 | 292450 | 306370

Характеристики диапазона извлечения и сообщения об ошибках

Выбранный диапазон

Имя файла C:\My Rips\Audio\Alexandra Stan - Unlocked (Japan)\Alexandra Stan - Unlocked (Japan).wav

Пиковый уровень 99.9 %
Скорость извлечения 4.6 X
Качество диапазона 99.9 %
CRC теста C778A6D8
CRC копии C778A6D8
Копирование... OK

Ошибок не произошло


AccurateRip: сводка

Трек 1 отсутствует в базе данных
Трек 2 отсутствует в базе данных
Трек 3 отсутствует в базе данных
Трек 4 отсутствует в базе данных
Трек 5 отсутствует в базе данных
Трек 6 отсутствует в базе данных
Трек 7 отсутствует в базе данных
Трек 8 отсутствует в базе данных
Трек 9 отсутствует в базе данных
Трек 10 отсутствует в базе данных
Трек 11 отсутствует в базе данных
Трек 12 отсутствует в базе данных
Трек 13 отсутствует в базе данных
Трек 14 отсутствует в базе данных
Трек 15 отсутствует в базе данных
Трек 16 отсутствует в базе данных
Трек 17 отсутствует в базе данных
Трек 18 отсутствует в базе данных

Ни одного трека нет в базе AccurateRip

Конец отчёта

==== Контрольная сумма отчёта C0381D49B87923670EA3402F9B5E884D5D5E36D31C345333D653B1DBBBA7C057 ====

foobar2000 1.2.6 / Dynamic Range Meter 1.1.1
log date: 2015-05-22 22:12:45

--------------------------------------------------------------------------------
Analyzed: Alexandra Stan / Unlocked (Japan)
--------------------------------------------------------------------------------

DR Peak RMS Duration Track
--------------------------------------------------------------------------------
DR5 -0.01 dB -7.09 dB 3:43 01-Little Lies
DR4 -0.40 dB -6.03 dB 3:13 02-Cherry Pop
DR3 -0.13 dB -5.87 dB 3:43 03-Dance
DR4 -0.13 dB -5.57 dB 3:35 04-Back To Light
DR8 -0.04 dB -9.30 dB 3:26 05-Give Me Your Everything
DR5 -0.01 dB -7.12 dB 3:19 06-Kiss Me Goodbye
DR6 -0.01 dB -7.56 dB 3:51 07-Digital
DR5 -0.01 dB -7.04 dB 3:27 08-Zoom Zoom
DR6 -0.01 dB -7.44 dB 3:19 09-Vanilla Chocolat [feat. Connect-R]
DR5 -0.01 dB -6.95 dB 2:54 10-Trumpet Blows
DR6 -0.30 dB -7.37 dB 3:55 11-Set Me Free [feat. Grano]
DR5 -0.01 dB -6.50 dB 3:28 12-Celebrate
DR5 -0.01 dB -7.21 dB 3:31 13-Happy
DR4 -0.01 dB -5.97 dB 3:37 14-Thanks For Leaving
DR4 -0.01 dB -6.55 dB 3:26 15-Holding Aces
DR6 -0.03 dB -9.16 dB 8:14 16-Unlocked
DR5 -0.01 dB -7.29 dB 4:19 17-Dance (Grano Remix)
DR6 -0.04 dB -7.51 dB 3:06 18-Cherry Pop (Sonic-E & Woolhouse Remix)
--------------------------------------------------------------------------------

Number of tracks: 18
Official DR value: DR5

Samplerate: 44100 Hz
Channels: 2
Bits per sample: 16
Bitrate: 1016 kbps
Codec: FLAC
================================================================================

[CUETools log; Date: 22.05.2015 22:12:11; Version: 2.1.5]
[CTDB TOCID: 0BCfDxInCrz46wD1HRLHhdXHBsY-] found.
Track | CTDB Status
1 | (4/4) Accurately ripped
2 | (4/4) Accurately ripped
3 | (4/4) Accurately ripped
4 | (4/4) Accurately ripped
5 | (4/4) Accurately ripped
6 | (4/4) Accurately ripped
7 | (4/4) Accurately ripped
8 | (4/4) Accurately ripped
9 | (4/4) Accurately ripped
10 | (4/4) Accurately ripped
11 | (4/4) Accurately ripped
12 | (4/4) Accurately ripped
13 | (4/4) Accurately ripped
14 | (4/4) Accurately ripped
15 | (4/4) Accurately ripped
16 | (4/4) Accurately ripped
17 | (4/4) Accurately ripped
18 | (4/4) Accurately ripped
[AccurateRip ID: 002a2b5d-02369fbe-ee0ff412] disk not present in database.

Track Peak [ CRC32 ] [W/O NULL] [ LOG ]
-- 99,9 [C778A6D8] [3CEA8F55] CRC32
01 99,9 [4317EF1D] [FBC64DA4]
02 95,4 [1B673549] [1F13F7AB]
03 98,5 [16390602] [1AF27B38]
04 98,5 [FDAF5FB6] 9773C0E
05 99,5 E304989 [502F23B3]
06 99,9 [15DCF37D] [D46B4E60]
07 99,9 [3BA8C1DF] [02EC61EC]
08 99,9 [70357027] [04CA632F]
09 99,9 [AEB7DC23] [35F620D7]
10 99,9 5CBD4F1 [69E275BF]
11 96,6 [CED0B738] [F3EDD188]
12 99,9 [8A807962] [22D40148]
13 99,9 [E82337A4] [729D2483]
14 99,8 [5CACA02E] [FF219A33]
15 99,9 [C4D7A73B] [A0690917]
16 99,7 [6A215DDB] [202A5883]
17 99,9 [42E49FAF] [E3A4897C]
18 99,5 [5746AC5D] B6FCF51
Download link:



Links are Interchangeable - No Password - Single Extraction

uploaded


Rapidgator.net
Site BBcode/HTML Code:

Tags to an Article: Alexandra, Stan, Unlocked, 2014, Deluxe

Dear visitor, you went to the site as unregistered user.
We recommend you Sign up or Login to website under your name.
Information
Would you like to leave your comment? Please Login to your account to leave comments. Don't have an account? You can create a free account now.