» » El Portal - New Trophy (2012) {CamJazz}



Information of news
21-05-2015, 08:59

El Portal - New Trophy (2012) {CamJazz}

Category: Music

El Portal - New Trophy (2012) {CamJazz}

El Portal - New Trophy (2012) {CamJazz}
EAC 1.0b4 | FLAC tracks level 8 | Cue+Log+M3U | Full Scans 300dpi | 238MB + 5% Recovery
Genre: Jazz, Fusion

"El Portal comes from Miami, and they took their name from a suburb of 2,500 inhabitants. It's a quintet formed by Nolan Lem on saxophone (all of the pieces were written by him), Rainer Davies on electric guitar, Paul Bedal on Fender Rhodes, Joe Rehmer on bass and Dion Keith Kerr IV on drums. It was in the autumn of 2006 when the five musicians found themselves hiding out in the same house for days from the violent Hurricane Katrina. They made a pact that, if all of them escaped unharmed, they would found a jazz band together."

Track List
01. Vortex 4:12
02. Triptych 2:44
03. New Trophy 7:00
04. Crunch I 4:12
05. Crunch II 5:58
06. The Logic In My Life 3:42
07. Portrait Of Paul 2:41
08. Y-Y 4:07
09. Hysteresis 3:23
10. Tazeropolis 5:50

musicians
Nolan Lem - tenor sax
Rainer Davies - electric guitar
Joe Rehmer - bass
Paul Bedal - Fender Rhodes
Dion Keith Kerr IV - drums

Exact Audio Copy V1.0 beta 4 from 7. December 2014

EAC extraction logfile from 22. April 2015, 13:45

El Portal / New Trophy

Used drive : HL-DT-STDVDRAM GH24NS50 Adapter: 0 ID: 0

Read mode : Secure
Utilize accurate stream : Yes
Defeat audio cache : Yes
Make use of C2 pointers : No

Read offset correction : 667
Overread into Lead-In and Lead-Out : No
Fill up missing offset samples with silence : Yes
Delete leading and trailing silent blocks : No
Null samples used in CRC calculations : Yes
Used interface : Installed external ASPI interface
Gap handling : Appended to previous track

Used output format : User Defined Encoder
Selected bitrate : 1024 kBit/s
Quality : High
Add ID3 tag : No
Command line compressor : C:\Programmi\Exact Audio Copy\Flac\flac.exe
Additional command line options : -8 -V -T "ARTIST=%artist%" -T "TITLE=%title%" -T "ALBUM=%albumtitle%" -T "DATE=%year%" -T "TRACKNUMBER=%tracknr%" -T "GENRE=%genre%" -T "PERFORMER=%albuminterpret%" -T "COMPOSER=%composer%" %haslyrics%--tag-from-file=LYRICS="%lyricsfile%"%haslyrics% -T "ALBUMARTIST=%albumartist%" -T "DISCNUMBER=%cdnumber%" -T "TOTALDISCS=%totalcds%" -T "TOTALTRACKS=%numtracks%" -T "COMMENT=%comment%" %source% -o %dest%

TOC of the extracted CD

Track | Start | Length | Start sector | End sector
---------------------------------------------------------
1 | 0:00.00 | 4:12.13 | 0 | 18912
2 | 4:12.13 | 2:44.34 | 18913 | 31246
3 | 6:56.47 | 7:00.18 | 31247 | 62764
4 | 13:56.65 | 4:11.69 | 62765 | 81658
5 | 18:08.59 | 5:57.67 | 81659 | 108500
6 | 24:06.51 | 3:41.57 | 108501 | 125132
7 | 27:48.33 | 2:40.69 | 125133 | 137201
8 | 30:29.27 | 4:07.34 | 137202 | 155760
9 | 34:36.61 | 3:22.63 | 155761 | 170973
10 | 37:59.49 | 5:50.34 | 170974 | 197257

Track 1

Filename C:\Documents and Settings\user\Desktop\El Portal - New Trophy (2012) [FLAC] {CamJazz}\01 - Vortex.wav

Pre-gap length 0:00:02.00

Peak level 88.6 %
Extraction speed 1.1 X
Track quality 100.0 %
Test CRC CA24A255
Copy CRC CA24A255
Accurately ripped (confidence 1) [40EED020] (AR v2)
Copy OK

Track 2

Filename C:\Documents and Settings\user\Desktop\El Portal - New Trophy (2012) [FLAC] {CamJazz}\02 - Triptych.wav

Pre-gap length 0:00:03.00

Peak level 85.5 %
Extraction speed 1.1 X
Track quality 100.0 %
Test CRC 8CA172DC
Copy CRC 8CA172DC
Accurately ripped (confidence 1) [7CD9D585] (AR v2)
Copy OK

Track 3

Filename C:\Documents and Settings\user\Desktop\El Portal - New Trophy (2012) [FLAC] {CamJazz}\03 - New trophy.wav

Pre-gap length 0:00:02.00

Peak level 77.3 %
Extraction speed 1.3 X
Track quality 100.0 %
Test CRC 4757880A
Copy CRC 4757880A
Accurately ripped (confidence 1) [F1B85EAA] (AR v2)
Copy OK

Track 4

Filename C:\Documents and Settings\user\Desktop\El Portal - New Trophy (2012) [FLAC] {CamJazz}\04 - Crunch I.wav

Pre-gap length 0:00:03.00

Peak level 93.7 %
Extraction speed 1.4 X
Track quality 100.0 %
Test CRC 1A930C46
Copy CRC 1A930C46
Accurately ripped (confidence 1) [99C44A1E] (AR v2)
Copy OK

Track 5

Filename C:\Documents and Settings\user\Desktop\El Portal - New Trophy (2012) [FLAC] {CamJazz}\05 - Crunch II.wav

Pre-gap length 0:00:02.00

Peak level 90.9 %
Extraction speed 1.4 X
Track quality 99.9 %
Test CRC 1C770814
Copy CRC 1C770814
Accurately ripped (confidence 1) [D281D3F6] (AR v2)
Copy OK

Track 6

Filename C:\Documents and Settings\user\Desktop\El Portal - New Trophy (2012) [FLAC] {CamJazz}\06 - The logic in my life.wav

Pre-gap length 0:00:02.00

Peak level 79.6 %
Extraction speed 1.4 X
Track quality 99.9 %
Test CRC 33BF16BA
Copy CRC 33BF16BA
Accurately ripped (confidence 1) [531947F4] (AR v2)
Copy OK

Track 7

Filename C:\Documents and Settings\user\Desktop\El Portal - New Trophy (2012) [FLAC] {CamJazz}\07 - Portrait of Paul.wav

Pre-gap length 0:00:02.00

Peak level 87.3 %
Extraction speed 1.5 X
Track quality 100.0 %
Test CRC EBA87763
Copy CRC EBA87763
Accurately ripped (confidence 1) [09297B4D] (AR v2)
Copy OK

Track 8

Filename C:\Documents and Settings\user\Desktop\El Portal - New Trophy (2012) [FLAC] {CamJazz}\08 - Y-Y.wav

Pre-gap length 0:00:02.00

Peak level 84.6 %
Extraction speed 1.8 X
Track quality 100.0 %
Test CRC 5678EF37
Copy CRC 5678EF37
Accurately ripped (confidence 1) [FD90F097] (AR v2)
Copy OK

Track 9

Filename C:\Documents and Settings\user\Desktop\El Portal - New Trophy (2012) [FLAC] {CamJazz}\09 - Hysteresis.wav

Pre-gap length 0:00:03.00

Peak level 84.1 %
Extraction speed 1.5 X
Track quality 99.9 %
Test CRC 3F8DB156
Copy CRC 3F8DB156
Accurately ripped (confidence 1) [39986DB5] (AR v2)
Copy OK

Track 10

Filename C:\Documents and Settings\user\Desktop\El Portal - New Trophy (2012) [FLAC] {CamJazz}\10 - Tazeropolis.wav

Pre-gap length 0:00:02.00

Peak level 83.0 %
Extraction speed 2.0 X
Track quality 100.0 %
Test CRC 38BC9755
Copy CRC 38BC9755
Accurately ripped (confidence 1) [A3F53E90] (AR v2)
Copy OK

All tracks accurately ripped

No errors occurred

End of status report

---- CUETools DB Plugin V2.1.4

[CTDB TOCID: xjop6Cneae_5zlMbog9L2rFPs_U-] found
Submit result: xjop6Cneae_5zlMbog9L2rFPs_U- has been confirmed
Track | CTDB Status
1 | (2/2) Accurately ripped
2 | (2/2) Accurately ripped
3 | (2/2) Accurately ripped
4 | (2/2) Accurately ripped
5 | (2/2) Accurately ripped
6 | (2/2) Accurately ripped
7 | (2/2) Accurately ripped
8 | (2/2) Accurately ripped
9 | (2/2) Accurately ripped
10 | (2/2) Accurately ripped

==== Log checksum 6B72A9FD06FCBA74DD97CE7D41EF6E5C1F15C3DA74B58866D9C4A82BBD42B776 ====


--------------------------------------------------------------------------------
Analyzed: El Portal / New Trophy
--------------------------------------------------------------------------------

DR Peak RMS Duration Track
--------------------------------------------------------------------------------
DR14 -1.04 dB -17.57 dB 4:12 01-Vortex
DR13 -1.36 dB -17.07 dB 2:44 02-Triptych
DR13 -2.23 dB -18.51 dB 7:00 03-New trophy
DR15 -0.56 dB -18.18 dB 4:12 04-Crunch I
DR13 -0.82 dB -17.95 dB 5:58 05-Crunch II
DR14 -1.98 dB -19.06 dB 3:42 06-The logic in my life
DR12 -1.18 dB -17.67 dB 2:41 07-Portrait of Paul
DR12 -1.45 dB -16.78 dB 4:07 08-Y-Y
DR15 -1.50 dB -20.61 dB 3:23 09-Hysteresis
DR13 -1.61 dB -17.52 dB 5:50 10-Tazeropolis
--------------------------------------------------------------------------------

Number of tracks: 10
Official DR value: DR13

Samplerate: 44100 Hz
Channels: 2
Bits per sample: 16
Bitrate: 780 kbps
Codec: FLAC
Download link:



Links are Interchangeable - No Password - Single Extraction

uploaded


Rapidgator.net
Site BBcode/HTML Code:

Tags to an Article: Portal, New, Trophy, 2012, CamJazz

Dear visitor, you went to the site as unregistered user.
We recommend you Sign up or Login to website under your name.
Information
Would you like to leave your comment? Please Login to your account to leave comments. Don't have an account? You can create a free account now.