» » Roxy Music - For Your Pleasure (1973) [Japan 2015]



Information of news
12-03-2015, 00:44

Roxy Music - For Your Pleasure (1973) [Japan 2015]

Category: Music

Roxy Music - For Your Pleasure (1973) [Japan 2015]
Artist: Roxy Music
Title Of Album: For Your Pleasure [Japan Platinum SHM-CD]
Year Of Release: 2015 (1973)
Label: Universal Music Japan ICY-40123
Country: England
Genre: Rock / Art Rock / Glam
Quality: FLAC (image+.cue+.log, scans)
Bitrate: Lossless
Time: 42:29
Full Size: 459 MB
Tracklist:

01 Do The Strand
02 Beauty Queen
03 Strictly Confidential
04 Editions Of You
05 In Every Dream Home A Heartache
06 The Bogus Man
07 Grey Lagoons
08 For Your Pleasure

Exact Audio Copy V1.0 beta 4 from 7. December 2014

EAC extraction logfile from 14. February 2015, 18:23

Roxy Music / For Your Pleasure PT-SHM

Used drive : PLEXTOR BD-R PX-B950SA Adapter: 1 ID: 1

Read mode : Secure
Utilize accurate stream : Yes
Defeat audio cache : Yes
Make use of C2 pointers : No

Read offset correction : 6
Overread into Lead-In and Lead-Out : No
Fill up missing offset samples with silence : Yes
Delete leading and trailing silent blocks : No
Null samples used in CRC calculations : Yes
Used interface : Native Win32 interface for Win NT & 2000

Used output format : Internal WAV Routines
Sample format : 44.100 Hz; 16 Bit; Stereo

TOC of the extracted CD Track | Start | Length | Start sector | End sector
-----------
1 | 0:00.00 | 4:04.40 | 0 | 18339
2 | 4:04.40 | 4:41.57 | 18340 | 39471
3 | 8:46.22 | 3:48.65 | 39472 | 56636
4 | 12:35.12 | 3:53.45 | 56637 | 74156
5 | 16:28.57 | 5:31.43 | 74157 | 99024
6 | 22:00.25 | 9:21.55 | 99025 | 141154
7 | 31:22.05 | 4:14.05 | 141155 | 160209
8 | 35:36.10 | 6:53.32 | 160210 | 191216

Range status and errors

Selected range Filename C:\Users\Meijin\Desktop\ALLexxess\Roxy Music\1973 For Your Pleasure (Mini LP PT-SHM Universal Japan 2015)\Roxy Music - For Your Pleasure PT-SHM.wav Peak level 98.3 %
Extraction speed 6.7 X
Range quality 100.0 %
Test CRC 08414ED4
Copy CRC 08414ED4
Copy OK

No errors occurred


AccurateRip summary

Track 1 not present in database
Track 2 not present in database
Track 3 not present in database
Track 4 not present in database
Track 5 not present in database
Track 6 not present in database
Track 7 not present in database
Track 8 not present in database

None of the tracks are present in the AccurateRip database

End of status report

---- CUETools DB Plugin V2.1.4

[CTDB TOCID: ef8D6JUSngrF1wip2S0bA6N1rNA-] disk not present in database
Submit result: ef8D6JUSngrF1wip2S0bA6N1rNA- has been uploaded

==== Log checksum 771D79A9B0A01A9A8A2EA88B4100C495DF23D12682686C253466CC168DD215C3 ====

foobar2000 1.2.9 / Dynamic Range Meter 1.1.1
log date: 2015-02-21 15:03:40

--
Analyzed: Roxy Music / For Your Pleasure PT-SHM
--

DR Peak RMS Duration Track
--
DR12 -0.15 dB -13.81 dB 4:05 01-Do The Strand
DR12 -1.92 dB -15.86 dB 4:42 02-Beauty Queen
DR12 -1.82 dB -17.50 dB 3:49 03-Strictly Confidential
DR11 -0.56 dB -13.95 dB 3:54 04-Editions Of You
DR10 -2.24 dB -16.90 dB 5:32 05-In Every Dream Home A Heartache
DR12 -1.85 dB -17.59 dB 9:22 06-The Bogus Man
DR10 -1.47 dB -14.26 dB 4:14 07-Grey Lagoons
DR12 -1.37 dB -16.31 dB 6:53 08-For Your Pleasure
--

Number of tracks: 8
Official DR value: DR11

Samplerate: 44100 Hz
Channels: 2
Bits per sample: 16
Bitrate: 742 kbps
Codec: FLAC

CUETools log; Date: 21.02.2015 15:03:54; Version: 2.1.4]
[CTDB TOCID: ef8D6JUSngrF1wip2S0bA6N1rNA-] found.
Track | CTDB Status
1 | (1/1) Accurately ripped
2 | (1/1) Accurately ripped
3 | (1/1) Accurately ripped
4 | (1/1) Accurately ripped
5 | (1/1) Accurately ripped
6 | (1/1) Accurately ripped
7 | (1/1) Accurately ripped
8 | (1/1) Accurately ripped
[AccurateRip ID: 000be7b5-005170d2-6d09f508] disk not present in database.

Track Peak [ CRC32 ] [W/O NULL] [ LOG ]
-- 98,3 [08414ED4] [EB00BB60] CRC32
01 98,3 [041F3131] [47BD2F52]
02 80,1 [AB81A19F] [3BBCF10F]
03 81,0 [D3F735EF] [562EEBF0]
04 93,7 [DEDDCF01] [472247A2]
05 77,2 [3CE96D71] [E63B7355]
06 80,7 [16BCA8DC] [9EB16C0C]
07 84,3 [1D219CF0] [13A38D17]
08 85,3 0A88A95 [9C66EA3F]



uploaded


Rapidgator.net
Site BBcode/HTML Code:

Tags to an Article: Roxy, Music, For, Your, Pleasure

Dear visitor, you went to the site as unregistered user.
We recommend you Sign up or Login to website under your name.
Information
Would you like to leave your comment? Please Login to your account to leave comments. Don't have an account? You can create a free account now.