» » Jamiroquai - The Return Of The Space Cowboy [2CD 2013 Deluxe Remastered 20th Anniversary Edition] [Flac]



Information of news
  • Author: avelin
  • Date: 6-08-2014, 12:37
6-08-2014, 12:37

Jamiroquai - The Return Of The Space Cowboy [2CD 2013 Deluxe Remastered 20th Anniversary Edition] [Flac]

Category: Music

Jamiroquai - The Return Of The Space Cowboy [2CD 2013 Deluxe Remastered 20th Anniversary Edition] [Flac]

Jamiroquai - The Return Of The Space Cowboy [2CD 2013 Deluxe Remastered 20th Anniversary Edition] [Flac]
2 CDs | Release: 2014 | FLAC | 44.1 Khz | Joint-Stereo | 1.525 GB
Genre:Funk, acid jazz, R&B

Tracklist

Track 1

Filename G:\Jamiroquai - The Return Of The Space Cowboy (1994) [2CD] {2013 Deluxe Remastered 20th Anniversary Edition}\CD2\01 - Light Years (4 To Da Floor Mix).wav

Pre-gap length 0:00:02.00

Peak level 100.0 %
Extraction speed 1.9 X
Track quality 100.0 %
Test CRC 93121C12
Copy CRC 93121C12
Track not present in AccurateRip database
Copy OK

Track 2

Filename G:\Jamiroquai - The Return Of The Space Cowboy (1994) [2CD] {2013 Deluxe Remastered 20th Anniversary Edition}\CD2\02 - Space Cowboy (David Morales Mix).wav

Peak level 96.1 %
Extraction speed 2.3 X
Track quality 100.0 %
Test CRC E1C2138B
Copy CRC E1C2138B
Track not present in AccurateRip database
Copy OK

Track 3

Filename G:\Jamiroquai - The Return Of The Space Cowboy (1994) [2CD] {2013 Deluxe Remastered 20th Anniversary Edition}\CD2\03 - Space Cowboy (Demo Version).wav

Peak level 99.8 %
Extraction speed 2.4 X
Track quality 100.0 %
Test CRC 9B75BB33
Copy CRC 9B75BB33
Track not present in AccurateRip database
Copy OK

Track 4

Filename G:\Jamiroquai - The Return Of The Space Cowboy (1994) [2CD] {2013 Deluxe Remastered 20th Anniversary Edition}\CD2\04 - Morning Glory (Instrumental).wav

Peak level 99.9 %
Extraction speed 2.2 X
Track quality 99.9 %
Test CRC 1967BE5E
Copy CRC 1967BE5E
Track not present in AccurateRip database
Copy OK

Track 5

Filename G:\Jamiroquai - The Return Of The Space Cowboy (1994) [2CD] {2013 Deluxe Remastered 20th Anniversary Edition}\CD2\05 - Stillness In Time (Edit).wav

Peak level 99.9 %
Extraction speed 2.8 X
Track quality 100.0 %
Test CRC 2D160864
Copy CRC 2D160864
Track not present in AccurateRip database
Copy OK

Track 6

Filename G:\Jamiroquai - The Return Of The Space Cowboy (1994) [2CD] {2013 Deluxe Remastered 20th Anniversary Edition}\CD2\06 - Space Clav.wav

Peak level 99.9 %
Extraction speed 3.0 X
Track quality 100.0 %
Test CRC 7771C9A7
Copy CRC 7771C9A7
Track not present in AccurateRip database
Copy OK

Track 7

Filename G:\Jamiroquai - The Return Of The Space Cowboy (1994) [2CD] {2013 Deluxe Remastered 20th Anniversary Edition}\CD2\07 - Light Years (Live at the Theatre Du Moulin).wav

Peak level 100.0 %
Extraction speed 3.3 X
Track quality 100.0 %
Test CRC AAAB9D04
Copy CRC AAAB9D04
Track not present in AccurateRip database
Copy OK

Track 8

Filename G:\Jamiroquai - The Return Of The Space Cowboy (1994) [2CD] {2013 Deluxe Remastered 20th Anniversary Edition}\CD2\08 - Scam (Live).wav

Peak level 100.0 %
Extraction speed 3.4 X
Track quality 100.0 %
Test CRC 70738AAA
Copy CRC 70738AAA
Track not present in AccurateRip database
Copy OK

Track 9

Filename G:\Jamiroquai - The Return Of The Space Cowboy (1994) [2CD] {2013 Deluxe Remastered 20th Anniversary Edition}\CD2\09 - Journey To Arnhemland (Live).wav

Peak level 100.0 %
Extraction speed 3.6 X
Track quality 100.0 %
Test CRC D0354BD3
Copy CRC D0354BD3
Track not present in AccurateRip database
Copy OK

Track 10

Filename G:\Jamiroquai - The Return Of The Space Cowboy (1994) [2CD] {2013 Deluxe Remastered 20th Anniversary Edition}\CD2\10 - We Gettin' Down (Live).wav

Peak level 100.0 %
Extraction speed 3.4 X
Track quality 99.9 %
Test CRC 276C2A78
Copy CRC 276C2A78
Track not present in AccurateRip database
Copy OK

Jamiroquai - The Return Of The Space Cowboy [2CD 2013 Deluxe Remastered 20th Anniversary Edition] [Flac]

(All below links are interchangable. No password)
Buy Premium To Support Me & Get Resumable Support & Max Speed






uploaded


Rapidgator.net
Site BBcode/HTML Code:

Tags to an Article: Jamiroquai, The, Return, The, Space

Dear visitor, you went to the site as unregistered user.
We recommend you Sign up or Login to website under your name.
Information
Would you like to leave your comment? Please Login to your account to leave comments. Don't have an account? You can create a free account now.