» » Point Blank - Art of Mixing Course - Week 1 (2013)



Information of news
30-01-2014, 18:07

Point Blank - Art of Mixing Course - Week 1 (2013)

Category: Tutorials

Point Blank - Art of Mixing Course - Week 1 (2013)

Point Blank - Art of Mixing Course - Week 1 (2013)
MP4 | AVC 1229kbps | English | 960x768 | 30fps | 1 hour | AAC stereo 244kbps | 1.14 GB
Genre: Video Training

Packed with classic and cutting edge mix techniques, the Art of Mixing course equips you with the skills of an advanced mix engineer and features real multi-tracks (for demonstration purposes only) in a range of musical styles. It is taught on Logic, spans 8 weeks and is part of the Mixing and Mastering program. The course videos include some very special exclusives with top industry professionals sharing their own mixing tips, tricks and techniques. Balancing, panning, aural perception, EQ, compression, limiting, gates, and effects are covered in detail. You will also learn to listen to music from a critical perspective and understand the science behind the sound.
01. CRITICAL LISTENING
02. INTRODUCTION TO LESSON
03. WHAT IS A MIX?
04. A SUBJECTIVE ART
05. CRITICAL LISTENING
06. LEARNING TO LISTEN (1) FREQUENCIES
07. LEARNING TO LISTEN (2) FREQUENCIES TEST
08. LEARNING TO LISTEN (3) DYNAMICS
09. LEARNING TO LISTEN (4) DYNAMICS TEST
10. LEARNING TO LISTEN (5) IMAGING
11. LEARNING TO LISTEN (6) SPATIAL AWARENESS
12. HEARING IS BELIEVING
13. MIX TECHNOLOGY
14. MIXING IN THE BOX (1)
15. MIXING IN THE BOX (2)
16. THE DAW MIXER 1 - OVERVIEW
17. THE DAW MIXER 2 - CHANNEL COMPONENTS
18. THE DAW MIXER 3 - AUX RETURNS & THE STEREO OUTPUT
19. UNDERSTANDING SIGNAL ROUTING
20. SIGNAL ROUTING TEST
21. AUTOMATED PROCESSES (1)
22. AUTOMATED PROCESSES (2)
23. AUTOMATED PROCESSES (3)
24. ABOUT THE BAND JUPITER ONE
25. PREPARING TO MIX 1 - SESSION ORGANISATION
26. PREPARING TO MIX 2 - GROUPING TRACKS
27. PREPARING TO MIX 3 - TIDYING UP AUDIO
28. ASSIGNMENT

\
Format : MPEG-4
Format profile : Base Media / Version 2
Codec ID : mp42
File size : 98.2 MiB
Duration : 9mn 17s
Overall bit rate : 1 478 Kbps
Encoded date : UTC 2014-01-24 13:56:31
Tagged date : UTC 2014-01-24 13:58:27
Video #1
ID : 1
Format : AVC
Format/Info : Advanced Video Codec
Format profile : [email protected]
Format settings, CABAC : Yes
Format settings, ReFrames : 5 frames
Codec ID : avc1
Codec ID/Info : Advanced Video Coding
Duration : 9mn 17s
Bit rate mode : Variable
Bit rate : 1 229 Kbps
Width : 960 pixels
Height : 768 pixels
Display aspect ratio : 5:4
Frame rate mode : Constant
Frame rate : 30.000 fps
Resolution : 24 bits
Colorimetry : 4:2:0
Scan type : Progressive
Bits/(Pixel*Frame) : 0.056
Stream size : 81.7 MiB (83%)
Encoded date : UTC 2014-01-24 13:56:31
Tagged date : UTC 2014-01-24 13:58:27
Audio #2
ID : 2
Format : AAC
Format/Info : Advanced Audio Codec
Format version : Version 4
Format profile : LC
Format settings, SBR : No
Codec ID : 40
Duration : 9mn 17s
Bit rate mode : Variable
Bit rate : 244 Kbps
Maximum bit rate : 450 Kbps
Channel(s) : 2 channels
Channel positions : L R
Sampling rate : 44.1 KHz
Resolution : 16 bits
Stream size : 16.2 MiB (17%)




RapidGator:
h2584.Point.Blank..Art.of.Mixing.Course..Week.1.2013.part1.rar.html
h2584.Point.Blank..Art.of.Mixing.Course..Week.1.2013.part2.rar.html
h2584.Point.Blank..Art.of.Mixing.Course..Week.1.2013.part3.rar.html
h2584.Point.Blank..Art.of.Mixing.Course..Week.1.2013.part4.rar.html
h2584.Point.Blank..Art.of.Mixing.Course..Week.1.2013.part5.rar.html

RyuShare:
h2584.Point.Blank..Art.of.Mixing.Course..Week.1.2013.part1.rar
h2584.Point.Blank..Art.of.Mixing.Course..Week.1.2013.part2.rar
h2584.Point.Blank..Art.of.Mixing.Course..Week.1.2013.part3.rar
h2584.Point.Blank..Art.of.Mixing.Course..Week.1.2013.part4.rar
h2584.Point.Blank..Art.of.Mixing.Course..Week.1.2013.part5.rar

SecureUpload:
h2584.Point.Blank..Art.of.Mixing.Course..Week.1.2013.part1.rar
h2584.Point.Blank..Art.of.Mixing.Course..Week.1.2013.part2.rar
h2584.Point.Blank..Art.of.Mixing.Course..Week.1.2013.part3.rar
h2584.Point.Blank..Art.of.Mixing.Course..Week.1.2013.part4.rar
h2584.Point.Blank..Art.of.Mixing.Course..Week.1.2013.part5.rar

Uploaded:
h2584.Point.Blank..Art.of.Mixing.Course..Week.1.2013.part1.rar
h2584.Point.Blank..Art.of.Mixing.Course..Week.1.2013.part2.rar
h2584.Point.Blank..Art.of.Mixing.Course..Week.1.2013.part3.rar
h2584.Point.Blank..Art.of.Mixing.Course..Week.1.2013.part4.rar
h2584.Point.Blank..Art.of.Mixing.Course..Week.1.2013.part5.rar

uploaded


Rapidgator.net
Site BBcode/HTML Code:

Tags to an Article: Point, Blank, Art, Mixing, Course

Dear visitor, you went to the site as unregistered user.
We recommend you Sign up or Login to website under your name.
Information
Would you like to leave your comment? Please Login to your account to leave comments. Don't have an account? You can create a free account now.