» » Learn & Master Guitar - Blues Guitar + Jam Along CD



Information of news
  • Author: avelin
  • Date: 16-01-2014, 21:13
16-01-2014, 21:13

Learn & Master Guitar - Blues Guitar + Jam Along CD

Category: Tutorials

Learn & Master Guitar - Blues Guitar + Jam Along CD

Learn & Master Guitar - Blues Guitar + Jam Along CD | 8.841 GB
Genre: E-Learning

Learning Blues haphazardly can be very frustrating?a lick here, a lick there?so having a complete system that takes you by the hand from the basic progressions and tools to advanced blues soloing can save you months of dead-end trial and error.
With this course, you'll learn the notes, chords, and form that make up the blues. You'll also build a strong repertoire of ready-to-use riffs (shown in both music and TAB) that can immediately be incorporated into your playing.

You'll hear exactly what to play with each session's "Hearing the Blues" ear training exercises. Explore and demonstrate your new skills with a real band in a variety of musical settings using the Jam-Along CD and DVD.

http://www.learnandmaster.com/spotlight-series/blues-guitar/

General
Complete name : Learn_&_Master_Guitar_-_Blues_Guitar\DVD1\Session 1.avi
Format : AVI
Format/Info : Audio Video Interleave
File size : 700 MiB
Duration : 39mn 30s
Overall bit rate mode : Variable
Overall bit rate : 2 477 Kbps
Writing application : VirtualDubMod 1.5.4.1 (build 2178/release)
Writing library : VirtualDubMod build 2178/release

Video
ID : 0
Format : MPEG-4 Visual
Format profile : Advanced [email protected]
Format settings, BVOP : 1
Format settings, QPel : No
Format settings, GMC : No warppoints
Format settings, Matrix : Custom
Codec ID : XVID
Codec ID/Hint : XviD
Duration : 39mn 30s
Bit rate : 2 379 Kbps
Width : 720 pixels
Height : 480 pixels
Display aspect ratio : 3:2
Frame rate : 23.976 fps
Standard : NTSC
Color space : YUV
Chroma subsampling : 4:2:0
Bit depth : 8 bits
Scan type : Progressive
Compression mode : Lossy
Bits/(Pixel*Frame) : 0.287
Stream size : 672 MiB (96%)
Writing library : XviD 64

Audio
ID : 1
Format : MPEG Audio
Format version : Version 1
Format profile : Layer 3
Mode : Joint stereo
Mode extension : MS Stereo
Codec ID : 55
Codec ID/Hint : MP3
Duration : 39mn 24s
Bit rate mode : Variable
Bit rate : 85.8 Kbps
Nominal bit rate : 128 Kbps
Channel(s) : 2 channels
Sampling rate : 48.0 KHz
Compression mode : Lossy
Stream size : 24.2 MiB (3%)
Alignment : Aligned on interleaves
Interleave, duration : 24 ms (0.58 video frame)
Interleave, preload duration : 214 ms
Writing library : LAME3.98r
Encoding settings : -m j -V 4 -q 2 -lowpass 17 --abr 128

Learn & Master Guitar - Blues Guitar + Jam Along CD

(All below links are interchangable. No password)

Buy a Premium Account Uploaded or Rapidgator or Secureupload = High speed + Parallel Downloads!

From Secureupload (Premium Recommend)

http://www.secureupload.eu/7a5o2bmigp5x/Learn___Master_Guitar_-_Blues_Guitar.part1.rar
http://www.secureupload.eu/a5l49ybedaj4/Learn___Master_Guitar_-_Blues_Guitar.part2.rar
http://www.secureupload.eu/keofrycjs9eu/Learn___Master_Guitar_-_Blues_Guitar.part3.rar
http://www.secureupload.eu/um7pnlpj2b3v/Learn___Master_Guitar_-_Blues_Guitar.part4.rar
http://www.secureupload.eu/l5smoh586jp4/Learn___Master_Guitar_-_Blues_Guitar.part5.rar
http://www.secureupload.eu/b5lis2jrzhxm/Learn___Master_Guitar_-_Blues_Guitar.part6.rar

From Rapidgator (Premium Recommend)

http://rapidgator.net/file/54864cd0dc2c95672785f12fe8af9bda/Learn_&_Master_Guitar_-_Blues_Guitar.part1.rar.html
http://rapidgator.net/file/29cdd23e9c70a8c505b4157f430bcf04/Learn_&_Master_Guitar_-_Blues_Guitar.part2.rar.html
http://rapidgator.net/file/e76f8a3f90de5d5598315fac3be62bde/Learn_&_Master_Guitar_-_Blues_Guitar.part3.rar.html
http://rapidgator.net/file/b81c1a8f30cb24cd3c7dff87c6e5ecd2/Learn_&_Master_Guitar_-_Blues_Guitar.part4.rar.html
http://rapidgator.net/file/89faa6d56638308ab16b0fcd3601e315/Learn_&_Master_Guitar_-_Blues_Guitar.part5.rar.html
http://rapidgator.net/file/13fa7f637de6374ee32156634deaf4e8/Learn_&_Master_Guitar_-_Blues_Guitar.part6.rar.html

From Uploaded (Premium Recommend)

http://uploaded.net/file/cyvx9ldg/Learn_%26_Master_Guitar_-_Blues_Guitar.part1.rar
http://uploaded.net/file/8iwl34f7/Learn_%26_Master_Guitar_-_Blues_Guitar.part2.rar
http://uploaded.net/file/tnd5ypur/Learn_%26_Master_Guitar_-_Blues_Guitar.part3.rar
http://uploaded.net/file/ivp5ar83/Learn_%26_Master_Guitar_-_Blues_Guitar.part4.rar
http://uploaded.net/file/yfeqfdnm/Learn_%26_Master_Guitar_-_Blues_Guitar.part5.rar
http://uploaded.net/file/8ai9cyjj/Learn_%26_Master_Guitar_-_Blues_Guitar.part6.rar


uploaded


Rapidgator.net
Site BBcode/HTML Code:

Tags to an Article: Learn, Master, Guitar, Blues, Guitar

Dear visitor, you went to the site as unregistered user.
We recommend you Sign up or Login to website under your name.
Information
Would you like to leave your comment? Please Login to your account to leave comments. Don't have an account? You can create a free account now.