» » » Fine Furniture Finishing with David Sorg Vol. 1 & 2 REFiX



Information of news
22-11-2013, 22:20

Fine Furniture Finishing with David Sorg Vol. 1 & 2 REFiX

Category: Tutorials » Other

Fine Furniture Finishing with David Sorg Vol. 1 & 2 REFiX
Fine Furniture Finishing with David Sorg Vol. 1 & 2 REFiX
DVDRip | English | AVI/DIVX 29.970 fps 550 Kbps | 640x480 | MP3 128 Kbps 44.1 khz | 4h 51mn | 1.45 GB
Genre: Video Training

"These VIDEO TAPES featuring master finisher David Sorg will guide you through the fascinating world of furniture finishing. From faux to lacquers, antiquing to hand rubbing, these tapes will bring out the artist in you while bringing your well-worn furniture back to life!"
Volume 1 offers many basic and advanced finishing techniques, some faux and lacquering. How to create beautiful finishes; your complete do-it-yourself guide. How to finish and re-finish furniture, including faux finishes, clear coat finishes, antiquing, colors, and glazes. Join your host, master finisher David Sorg, as he shows you the materials, tools, and techniques you need to create your own beautiful finishes. David explains how even the most complex looks can be broken into Simple, Easy-to-Do steps that produce Amazing Results!

Start-to-finish demonstrations include:
-Faux marbles in oil and water-based materials
-Wood stains, filler, and putties
-Shellac
-Oil and water-based clear varnishes
-Wipe-on oil finish and wax
-Antiquing, mixing colors and glazes
-Oriental style lacquer
Volume 1 is complete; after you watch it, you will be able to turn the ordinary into the extraordinary - and you'll have a lot of fun doing it!

Volume 2 expands these concepts into a variety of faux finishes, hand rubbing, stenciling and more! Volume 2 builds on the first tape of this series (see Volume 1) and is made for those of you who desire to carry the art of finishing to its highest levels. Once again, join your host, master finisher David Sorg, as you discover the secrets to beautiful finishes. You will learn how to create effects that you may have never thought possible!

-Faux granite
-Floated faux marbles with both positive and negative methods
-Faux tortoise-shell
-Hand rubbing and polishing finish coats
-Dragging, pinstriping, and stenciling
-Crackle effects"

MediaInfo:
General
Complete name : Fine_Furniture_Finishing_1.avi
Format : AVI
Format/Info : Audio Video Interleave
File size : 775 MiB
Duration : 2h 37mn
Overall bit rate : 689 Kbps

Video
ID : 0
Format : MPEG-4 Visual
Format settings, BVOP : No
Format settings, QPel : No
Format settings, GMC : No warppoints
Format settings, Matrix : Default (H.263)
Codec ID : DX50
Codec ID/Hint : DivX 5
Duration : 2h 37mn
Bit rate : 550 Kbps
Width : 640 pixels
Height : 480 pixels
Display aspect ratio : 4:3
Frame rate : 29.970 fps
Color space : YUV
Chroma subsampling : 4:2:0
Bit depth : 8 bits
Scan type : Progressive
Compression mode : Lossy
Bits/(Pixel*Frame) : 0.060
Stream size : 618 MiB (80%)
Writing library : DivX 6.8.0 (UTC 2007-12-04)

Audio
ID : 1
Format : MPEG Audio
Format version : Version 1
Format profile : Layer 3
Codec ID : 55
Codec ID/Hint : MP3
Duration : 2h 37mn
Bit rate mode : Constant
Bit rate : 128 Kbps
Channel(s) : 2 channels
Sampling rate : 44.1 KHz
Compression mode : Lossy
Delay relative to video : 26ms
Stream size : 144 MiB (19%)
Alignment : Split accross interleaves
Interleave, duration : 33 ms (1.00 video frame)
Title : Audio Stream


SecureUpload:
f6klh.Fine.Furniture.Finishing.with.David.Sorg.Vol..1..2.REFiX.part1.rar
f6klh.Fine.Furniture.Finishing.with.David.Sorg.Vol..1..2.REFiX.part2.rar
f6klh.Fine.Furniture.Finishing.with.David.Sorg.Vol..1..2.REFiX.part3.rar
f6klh.Fine.Furniture.Finishing.with.David.Sorg.Vol..1..2.REFiX.part4.rar
f6klh.Fine.Furniture.Finishing.with.David.Sorg.Vol..1..2.REFiX.part5.rar

RyuShare:
f6klh.Fine.Furniture.Finishing.with.David.Sorg.Vol..1..2.REFiX.part1.rar
f6klh.Fine.Furniture.Finishing.with.David.Sorg.Vol..1..2.REFiX.part2.rar
f6klh.Fine.Furniture.Finishing.with.David.Sorg.Vol..1..2.REFiX.part3.rar
f6klh.Fine.Furniture.Finishing.with.David.Sorg.Vol..1..2.REFiX.part4.rar
f6klh.Fine.Furniture.Finishing.with.David.Sorg.Vol..1..2.REFiX.part5.rar

Uploaded:
f6klh.Fine.Furniture.Finishing.with.David.Sorg.Vol..1..2.REFiX.part1.rar
f6klh.Fine.Furniture.Finishing.with.David.Sorg.Vol..1..2.REFiX.part2.rar
f6klh.Fine.Furniture.Finishing.with.David.Sorg.Vol..1..2.REFiX.part3.rar
f6klh.Fine.Furniture.Finishing.with.David.Sorg.Vol..1..2.REFiX.part4.rar
f6klh.Fine.Furniture.Finishing.with.David.Sorg.Vol..1..2.REFiX.part5.rar

DizzCloud:
f6klh.Fine.Furniture.Finishing.with.David.Sorg.Vol..1..2.REFiX.part1.rar
f6klh.Fine.Furniture.Finishing.with.David.Sorg.Vol..1..2.REFiX.part2.rar
f6klh.Fine.Furniture.Finishing.with.David.Sorg.Vol..1..2.REFiX.part3.rar
f6klh.Fine.Furniture.Finishing.with.David.Sorg.Vol..1..2.REFiX.part4.rar
f6klh.Fine.Furniture.Finishing.with.David.Sorg.Vol..1..2.REFiX.part5.rar


uploaded


Rapidgator.net
Site BBcode/HTML Code:

Tags to an Article: Fine, Furniture, Finishing, with, David

Dear visitor, you went to the site as unregistered user.
We recommend you Sign up or Login to website under your name.
Information
Would you like to leave your comment? Please Login to your account to leave comments. Don't have an account? You can create a free account now.