» » The Tapping Solution Collection - Nick Ortner [8 avi, 22 mp3, 13 pdf, 1 epub]



Information of news
17-11-2013, 17:46

The Tapping Solution Collection - Nick Ortner [8 avi, 22 mp3, 13 pdf, 1 epub]

Category: Tutorials

The Tapping Solution Collection - Nick Ortner [8 avi, 22 mp3, 13 pdf, 1 epub]

The Tapping Solution Collection - Nick Ortner [8 avi, 22 mp3, 13 pdf, 1 epub]
English | Size: 2.69 GB
Category:Everything Else


Including Audios, Extra Videos, Pdf Transcripts and Bonus Files

Millions of people are settling for lives filled with poor health and emotional baggage. Not knowing how to achieve the joyful and satisfying lives they desire, they're stuck accepting a lifestyle of emotional trauma, chronic physical pain, compulsions and addictions, or perhaps just an empty feeling inside. Along with these problems come pills to kill the pain, sleep at night, and suppress anxiety ΓÇô but this is hardly better than the disease.

If you're like many people, you feel trapped, caught in this cycle. You're tired of feeling sad, depressed, anxious, discontent, and unwell. You're sick of the expensive and ineffective treatments. You're fed up with relinquishing the power over your health and happiness to psychologists and doctors. You'd like to grow, flourish, and thrive, putting the past in the past. You want to be your best, living a life that is filled with peacefulness, joy, and fulfillment, from day to day and moment to moment.

With Tapping, you can do that. You can discover the vital secret for emotional wholeness and physical relief. You can take your physical and emotional well-being into your own hands. It's simple for anyone to master.

Website: http://thetappingsolution.com/the-film.php

INCLUDED IN THIS COLLECTION
The Tapping Solution DVD Rip (xvid format)
The Tapping Solution DVD cover (png format)
The Tapping Solution DVD Spanish and Portugese subtitles (srt format)
The Tapping Solution Audio Book (mp3 format)
The Tapping Solution eBook (epub format)
Tapping scripts referred to in the book (pdf format)
Tapping demonstrations and interviews (avi format)

VIDEO INFORMATION
Format: MPEG-4 Visual
Format profile: Advanced [email protected]
Format settings, BVOP: 2
Format settings, QPel: No
Format settings, GMC: No warppoints
Format settings, Matrix: Default (MPEG)
Codec ID: DIVX
Duration: 1h 24mn
Bit rate: 1 500 Kbps
Width: 720 pixels
Height: 400 pixels
Display aspect ratio: 16:9
frame rate: 29.970 fps
Color space: YUV
Chroma subsampling: 4:2:0
Bit depth: 8 bits
Scan type: Progressive
Bits/(Pixel*frame): 0.174
Stream size: 907 MiB (88%)
Writing library: XviD 64

AUDIO INFORMATION
Format: MPEG Audio
Format version: Version 1
Format profile: Layer 3
Codec ID: 55
Codec ID/Hint: MP3
Duration: 1h 24mn
Bit rate mode: Constant
Bit rate: 192 Kbps
Channel(s): 2 channels
Sampling rate: 44.1 KHz
Compression mode: Lossy
Stream size: 116 MiB (11%)
Alignment: Aligned on interleaves
Interleave, duration: 26 ms (0.78 video frame)
Writing library: LAME3.99


Buy Premium Account From My Download Links And Get Resumable Support & SUPER Fastest speed
Rapidgator.net
http://rapidgator.net/file/7c4de4ce604d6fb8e0a6cd6d31cf0785/The_Tapping_Solution_Collection_-_Nick_Ortner.part1.rar.html
http://rapidgator.net/file/801150302d2045bdf5b922011b9e4c38/The_Tapping_Solution_Collection_-_Nick_Ortner.part2.rar.html
http://rapidgator.net/file/35d183ff57a4555302736dab04e3c058/The_Tapping_Solution_Collection_-_Nick_Ortner.part3.rar.html
http://rapidgator.net/file/f42de6d4a147c732de5680717726e326/The_Tapping_Solution_Collection_-_Nick_Ortner.part4.rar.html
http://rapidgator.net/file/0d448458aeb2481153c1f17c5a6fe00f/The_Tapping_Solution_Collection_-_Nick_Ortner.part5.rar.html
http://rapidgator.net/file/dbcc441e49cee2ca42df991a799cf83f/The_Tapping_Solution_Collection_-_Nick_Ortner.part6.rar.html
http://rapidgator.net/file/83c4dbf85e9dba08d6024eb357b44602/The_Tapping_Solution_Collection_-_Nick_Ortner.part7.rar.html

Secureupload.eu
http://www.secureupload.eu/gfszj0mwkd06/The_Tapping_Solution_Collection_-_Nick_Ortner.part1.rar
http://www.secureupload.eu/jtl0orkin0vn/The_Tapping_Solution_Collection_-_Nick_Ortner.part2.rar
http://www.secureupload.eu/c2x9c6ozrb9r/The_Tapping_Solution_Collection_-_Nick_Ortner.part3.rar
http://www.secureupload.eu/am9jbt6j31bf/The_Tapping_Solution_Collection_-_Nick_Ortner.part4.rar
http://www.secureupload.eu/b5a0875ndqem/The_Tapping_Solution_Collection_-_Nick_Ortner.part5.rar
http://www.secureupload.eu/86ngyk6yzmxx/The_Tapping_Solution_Collection_-_Nick_Ortner.part6.rar
http://www.secureupload.eu/nqwu8cxi6vee/The_Tapping_Solution_Collection_-_Nick_Ortner.part7.rar

Letitbit.net
http://letitbit.net/download/88584.8cd8b5c24726111521fd9da78ef1/The_Tapping_Solution_Collection_-_Nick_Ortner.part1.rar.html
http://letitbit.net/download/88100.82033efe10b17c7764d9ef8f9dae/The_Tapping_Solution_Collection_-_Nick_Ortner.part2.rar.html
http://letitbit.net/download/69732.6ad364dfd856b4c9061bd410cf05/The_Tapping_Solution_Collection_-_Nick_Ortner.part3.rar.html
http://letitbit.net/download/21306.2ba3b16ed8a57c7edf9e253b11d8/The_Tapping_Solution_Collection_-_Nick_Ortner.part4.rar.html
http://letitbit.net/download/22956.2db42979c52acfd105175f3e63a3/The_Tapping_Solution_Collection_-_Nick_Ortner.part5.rar.html
http://letitbit.net/download/46727.42840c2669eb891d61e30c51b3e9/The_Tapping_Solution_Collection_-_Nick_Ortner.part6.rar.html
http://letitbit.net/download/75077.7d2a4b6eaf9835639b198fbad5bc/The_Tapping_Solution_Collection_-_Nick_Ortner.part7.rar.html

uploaded


Rapidgator.net
Site BBcode/HTML Code:
Dear visitor, you went to the site as unregistered user.
We recommend you Sign up or Login to website under your name.
Information
Would you like to leave your comment? Please Login to your account to leave comments. Don't have an account? You can create a free account now.