» » » Info Product Recipe (DVD, 2 CDs - MP3 + 2 PDFs)



Information of news
  • Author: davida
  • Date: 15-11-2013, 21:06
15-11-2013, 21:06

Info Product Recipe (DVD, 2 CDs - MP3 + 2 PDFs)

Category: Tutorials » Other

http://i57.fastpic.ru/big/2013/1115/32/1b6e7efa84c8fbe9e4a937179328d432.jpg
Dan Kennedy - Info Product Recipe (DVD, 2 CDs - MP3 + 2 PDFs)
English | MP4 | 720x480 | AVC 820 Kbps 29.970 fps | AAC 160 Kbps 48.0 khz | 1h 35mn | 915 MB
Genre: eLearning

"Learn how to create information products that become enduring, million dollar and multi-million dollar assets pushing out sales for years and creating happy lifetime customers that keep coming back for more.
Dan Kennedy reveals the secret recipe he's used to create more than 500+ products, including multiple million dollar plus income-earners. Listen in as he crams more than 30 years of experience and exposes the key ingredients in the most successful information products of all time.

Details
--------

The 19 Characteristics of Evergreen Information Products

Create Information Products that retain their selling power year after year using these never before disclosed characteristics.

The Big Take-Aways for Creating Great Information Products

Discover the four qualities great information products have, why you're DOOMED without these, what Earl Nightingale, Superman, and Tony Robbins have in common and the secret to creating great info-products.

"Herd" -Building Techniques

Avoid one-time sales and continually starting from scratch using techniques for creating info-products that build a herd of serious consumers that keep coming back for more, plus flaws you can fix to drastically cut down refunds, Dan's favorite "stick" strategies and what your customers really want more than anything else.

Key Ingredients of Successful Information Products

Listen on the go as Dan reveals his simple success recipe in the complete audio CD set. Follow this and you cannot fail to create great information products. Rewind to review Dan's Secrets as often as you'd like.

Complete Transcription Manual of Dan's Presentation

Write down all the ideas that pop into your head alongside Dan's presentation in the companion manual with a complete transcription and a wide, blank margin for taking notes."
Complete name : Dan Kennedy - Info Product Recipe.mp4
Format : MPEG-4
Format profile : Base Media / Version 2
Codec ID : mp42
File size : 675 MiB
Duration : 1h 35mn
Overall bit rate mode : Variable
Overall bit rate : 985 Kbps
Encoded date : UTC 2013-10-06 14:45:30
Tagged date : UTC 2013-10-06 15:45:21
Writing application : HandBrake 0.9.9 2013052900

Video
ID : 1
Format : AVC
Format/Info : Advanced Video Codec
Format profile : [email protected]
Format settings, CABAC : Yes
Format settings, ReFrames : 4 frames
Codec ID : avc1
Codec ID/Info : Advanced Video Coding
Duration : 1h 35mn
Duration_LastFrame : 8ms
Bit rate mode : Variable
Bit rate : 820 Kbps
Width : 720 pixels
Height : 480 pixels
Display aspect ratio : 4:3
Original display aspect ratio : 4:3
Frame rate mode : Constant
Frame rate : 29.970 fps
Standard : NTSC
Color space : YUV
Chroma subsampling : 4:2:0
Bit depth : 8 bits
Scan type : Progressive
Bits/(Pixel*Frame) : 0.079
Stream size : 562 MiB (83%)
Writing library : x264 core 130 r2273 b3065e6
Encoding settings : cabac=1 / ref=1 / deblock=1:0:0 / analyse=0x1:0x111 / me=hex / subme=2 / psy=1 / psy_rd=1.00:0.00 / mixed_ref=0 / me_range=16 / chroma_me=1 / trellis=0 / 8x8dct=0 / cqm=0 / deadzone=21,11 / fast_pskip=1 / chroma_qp_offset=0 / threads=3 / lookahead_threads=1 / sliced_threads=0 / nr=0 / decimate=1 / interlaced=0 / bluray_compat=0 / constrained_intra=0 / bframes=3 / b_pyramid=2 / b_adapt=1 / b_bias=0 / direct=1 / weightb=1 / open_gop=0 / weightp=1 / keyint=240 / keyint_min=24 / scenecut=40 / intra_refresh=0 / rc_lookahead=10 / rc=crf / mbtree=1 / crf=20.0 / qcomp=0.60 / qpmin=0 / qpmax=69 / qpstep=4 / vbv_maxrate=20000 / vbv_bufsize=25000 / crf_max=0.0 / nal_hrd=none / ip_ratio=1.40 / aq=1:1.00
Encoded date : UTC 2013-10-06 14:45:30
Tagged date : UTC 2013-10-06 15:45:21
Color primaries : BT.601-6 525, BT.1358 525, BT.1700 NTSC, SMPTE 170M
Transfer characteristics : BT.709-5, BT.1361
Matrix coefficients : BT.601-6 525, BT.1358 525, BT.1700 NTSC, SMPTE 170M

Audio
ID : 2
Format : AAC
Format/Info : Advanced Audio Codec
Format profile : LC
Codec ID : 40
Duration : 1h 35mn
Bit rate mode : Variable
Bit rate : 160 Kbps
Maximum bit rate : 198 Kbps
Channel(s) : 2 channels
Channel positions : Front: L R
Sampling rate : 48.0 KHz
Compression mode : Lossy
Delay relative to video : -67ms
Stream size : 110 MiB (16%)
Encoded date : UTC 2013-10-06 14:45:30
Tagged date : UTC 2013-10-06 15:45:21
Screenshots
http://i58.fastpic.ru/big/2013/1115/c2/081e462ed063804f122b0c6bdfb5ebc2.jpg
http://i60.fastpic.ru/big/2013/1115/a1/d64d16fb87b93511372b83d242af98a1.jpg
http://i58.fastpic.ru/big/2013/1115/bd/e99e651c6067e5650a5eb7278ddc98bd.jpg





uploaded


Rapidgator.net
Site BBcode/HTML Code:

Tags to an Article: Info, Product, Recipe, DVD, CDs

Dear visitor, you went to the site as unregistered user.
We recommend you Sign up or Login to website under your name.
Information
Would you like to leave your comment? Please Login to your account to leave comments. Don't have an account? You can create a free account now.