» » Jeremy Scahill - Dirty Wars (2013) [1 Webrip (AVI) subs (SRT)]

Information of news
5-11-2013, 16:40

Jeremy Scahill - Dirty Wars (2013) [1 Webrip (AVI) subs (SRT)]

Category: Tutorials

Jeremy Scahill - Dirty Wars (2013) [1 Webrip (AVI) subs (SRT)]

[b]Jeremy Scahill - Dirty Wars (2013) [1 Webrip (AVI) subs (SRT)][/b]
English | Size: 697.33 MB
Category: Political Science

A secret army. A war without end. A journalist determined to uncover the truth.

Investigative journalist Jeremy Scahill is pulled into an unexpected journey as he chases down the hidden truth behind America's expanding covert wars.

Dirty Wars follows investigative reporter Jeremy Scahill, author of the international bestseller Blackwater, into the hidden world of America's covert wars, from Afghanistan to Yemen, Somalia, and beyond. With a strong cinematic style, the film blurs the boundaries of documentary and fiction storytelling. Part action film and part detective story, Dirty Wars is a gripping journey into one of the most important and underreported stories of our time. What begins as a report on a deadly U.S. night raid in a remote corner of Afghanistan quickly turns into a global investigation of the secretive and powerful Joint Special Operations Command (JSOC). As Scahill digs deeper into the activities of JSOC, he is pulled into a world of covert operations unknown to the public and carried out across the globe by men who do not exist on paper and will never appear before Congress. In military jargon, JSOC teams "find, fix, and finish" their targets, who are selected through a secret process. No ...

Golden Bear for Best Documentary, Little Rock Film Festival 2013.
Courage in Filmmaking Award, to Jeremy Scahill, Little Rock Film Festival 2013.
Cinematography Award, Mountainfilm 2013.
Grand Jury Prize for Documentary, Boston Independent Film Festival 2013.

http://anonym.to/?http://www.imdb.com /title/tt2532528/

Source Re-Coded : Dirty.Wars.2013.720p.WEB-DL.DD5.1.h.264-fiend.mkv
Complete name : /Dirty Wars [2013]HDRip XViD -ETRG/Dirty Wars [2013]HDRip XViD -ETRG.avi
Format : AVI
File size : 697 MiB
Duration : 1h 26mn
Codec ID : XVID
Duration : 1h 26mn
Bit rate : 991 Kbps
Width : 640 pixels
Height : 352 pixels
Display aspect ratio : 16:9
frame rate : 23.976 fps
Stream size : 612 MiB (88%)
Codec ID/Hint : MP3
Bit rate : 128 Kbps
Channel(s) : 2 channels
Sampling rate : 48.0 KHz
Stream size : 79.1 MiB (11%)
[b]Buy Premium To Support Me & Max Speed

[b]Buy Premium Account From My Download Links And Get Resumable Support & SUPER Fastest speed[/b]
http://rapidgator.net/file/8732f742e09408bd34636907bc20feec/Dirty_Wars_ [2013]HDRip_XViD_-ETRG.part1.rar.html
http://rapidgator.net/file/a9e66ed3bee5a2004955cf2a7c9d8b60/Dirty_Wars_ [2013]HDRip_XViD_-ETRG.part2.rar.html
http://rapidgator.net/file/977b192cbe39c1fe51abba7342d51561/Dirty_Wars_ [2013]HDRip_XViD_-ETRG.part3.rar.html
http://rapidgator.net/file/1c30e9d2d2083874bf672cc2d92a7ea8/Dirty_Wars_ [2013]HDRip_XViD_-ETRG.part4.rar.html
http://rapidgator.net/file/2e222b7d6b104c1305feb54396174250/Dirty_Wars_ [2013]HDRip_XViD_-ETRG.part5.rar.html
http://rapidgator.net/file/91df21522df4b8d1188645ae295bf4a8/Dirty_Wars_ [2013]HDRip_XViD_-ETRG.part6.rar.html
http://rapidgator.net/file/b303a2cd9bb0d3fd733aff73d0f4938d/Dirty_Wars_ [2013]HDRip_XViD_-ETRG.part7.rar.html



http://dizzcloud.com/dl/1655a07/Dirty Wars [2013]HDRip XViD -ETRG.part1.rar
http://dizzcloud.com/dl/1655a04/Dirty Wars [2013]HDRip XViD -ETRG.part2.rar
http://dizzcloud.com/dl/1655a02/Dirty Wars [2013]HDRip XViD -ETRG.part3.rar
http://dizzcloud.com/dl/1655a03/Dirty Wars [2013]HDRip XViD -ETRG.part4.rar
http://dizzcloud.com/dl/1655a0s/Dirty Wars [2013]HDRip XViD -ETRG.part5.rar
http://dizzcloud.com/dl/1655a0u/Dirty Wars [2013]HDRip XViD -ETRG.part6.rar
http://dizzcloud.com/dl/1655a0b/Dirty Wars [2013]HDRip XViD -ETRG.part7.rar


Site BBcode/HTML Code:
Dear visitor, you went to the site as unregistered user.
We recommend you Sign up or Login to website under your name.
Would you like to leave your comment? Please Login to your account to leave comments. Don't have an account? You can create a free account now.