» » Trance Music Mastery - Sound Design for Trance Module 3 - Pad and Pluck Sounds (2013)



Information of news
27-10-2013, 03:41

Trance Music Mastery - Sound Design for Trance Module 3 - Pad and Pluck Sounds (2013)

Category: Tutorials

Trance Music Mastery - Sound Design for Trance Module 3 - Pad and Pluck Sounds (2013)

Trance Music Mastery - Sound Design for Trance: Module 3 - Pad and Pluck Sounds (2013)
MP4 | AVC 1037kbps | English | 1280x720 | 29.97fps | 2h 42mins | AAC stereo 322kbps | 1.63 GB
Genre: Video Training


In Module 3, Pad and Pluck Sounds, you'll learn about the key components in synthesis and how you can use them to create some beautiful pad and pluck sounds.

10 videos, comprising over 2.5 hours of instruction show you how to create trance pad and pluck sounds that sound like the sounds heard in professional reference tracks:

- Just For You Pad
- Follow You Pad
- White Empire Pad
- Hope Pluck
- Just For You Pluck
- Coming Home Pluck
- Anjunabeach Pluck

1. Introduction
In This Video You'll Learn What's Inside Module 3.
2. Follow You Pad
In This Video You'll Learn How To Make A Pad Sound Like The Pad Heard In "Follow You (Original Mix)" by Nitrous Oxide.
3. Exploring Chorus and Phaser Effects
In This Video We'll Explore The Chorus and Phaser Effects.
4. White Empire Pad
In This Video You'll Learn How To Make a Pad Sound Like The Pad Heard In "White Empire (Original Mix)" By Giuseppe Ottaviani.
5. Anjunabeach Pluck
In This Video You'll Learn How To Make a Pluck Sound Like The Pluck Heard In "Anjunabeach (Original Mix)" By Above & Beyond.
6. Come Home Pluck
In This Video You'll Learn How To Make a Pluck Sound Like The Pluck Heard In "Come Home (Original Mix)" By Alpha9.
7. Hope Pluck
In This Video You'll Learn How To Make a Pluck Sound Like The Pluck Heard In "Hope (Original Mix)" By Arty.
8. Just For You Pad
In This Video You'll Learn How To Make a Pad Sound Like The Pad Heard In "Just For You (Original Mix)" By Daniel Kandi.
9. Just For You Pluck
In This Video You'll Learn How To Make a pluck Sound Like The Pluck Heard In "Just For You (Original Mix)" By Daniel Kandi.
10. Conclusion
In This Video We'll Briefly Review What You Learned In Module 3 and See What's Coming Next In Module 4.

Format : MPEG-4
Format profile : Base Media
Codec ID : isom
File size : 246 MiB
Duration : 25mn 13s
Overall bit rate : 1 364 Kbps
Encoded date : UTC 1970-01-01 00:00:00
Tagged date : UTC 1970-01-01 00:00:00
Writing application : Lavf52.32.0
Video #1
ID : 1
Format : AVC
Format/Info : Advanced Video Codec
Format profile : [email protected]
Format settings, CABAC : Yes
Format settings, ReFrames : 1 frame
Codec ID : avc1
Codec ID/Info : Advanced Video Coding
Duration : 25mn 13s
Bit rate mode : Variable
Bit rate : 1 037 Kbps
Width : 1 280 pixels
Height : 720 pixels
Display aspect ratio : 16:9
Frame rate mode : Constant
Frame rate : 29.970 fps
Resolution : 24 bits
Colorimetry : 4:2:0
Scan type : Progressive
Bits/(Pixel*Frame) : 0.038
Stream size : 187 MiB (76%)
Language : English
Encoded date : UTC 1970-01-01 00:00:00
Tagged date : UTC 1970-01-01 00:00:00
Audio #2
ID : 2
Format : AAC
Format/Info : Advanced Audio Codec
Format version : Version 4
Format profile : LC
Format settings, SBR : No
Codec ID : 40
Duration : 25mn 13s
Bit rate mode : Variable
Bit rate : 322 Kbps
Channel(s) : 2 channels
Channel positions : L R
Sampling rate : 48.0 KHz
Resolution : 16 bits
Stream size : 58.1 MiB (24%)
Language : English
Encoded date : UTC 1970-01-01 00:00:00
Tagged date : UTC 1970-01-01 00:00:00

Trance Music Mastery - Sound Design for Trance Module 3 - Pad and Pluck Sounds (2013)
Trance Music Mastery - Sound Design for Trance Module 3 - Pad and Pluck Sounds (2013)
Trance Music Mastery - Sound Design for Trance Module 3 - Pad and Pluck Sounds (2013)



Buy Premium Account From My Download Links And Get Resumable Support & SUPER Fastest speed
Rapidgator.net
http://rapidgator.net/file/b2a94f71c09aa20f08d7b110939d8ccd/607f9.Trance.Music.Mastery..Sound.Design.for.Trance.Module.3..Pad.and.Pluck.Sounds.2013.part1.rar.html
http://rapidgator.net/file/6e5e93b160682398450546bfcb488137/607f9.Trance.Music.Mastery..Sound.Design.for.Trance.Module.3..Pad.and.Pluck.Sounds.2013.part2.rar.html
http://rapidgator.net/file/cb11b73d3a4c76d17e7cb0e88d114d87/607f9.Trance.Music.Mastery..Sound.Design.for.Trance.Module.3..Pad.and.Pluck.Sounds.2013.part3.rar.html
http://rapidgator.net/file/1905de934bbdc128cb17f6d552b9a0c6/607f9.Trance.Music.Mastery..Sound.Design.for.Trance.Module.3..Pad.and.Pluck.Sounds.2013.part4.rar.html
http://rapidgator.net/file/dfb9121aab80c1228f078fd8d449dea0/607f9.Trance.Music.Mastery..Sound.Design.for.Trance.Module.3..Pad.and.Pluck.Sounds.2013.part5.rar.html
http://rapidgator.net/file/e12233793543239c4b220505a37d4632/607f9.Trance.Music.Mastery..Sound.Design.for.Trance.Module.3..Pad.and.Pluck.Sounds.2013.part6.rar.html

OR

http://dizzcloud.com/dl/165isj9/607f9.Trance.Music.Mastery..Sound.Design.for.Trance.Module.3..Pad.and.Pluck.Sounds.2013.part5.rar
http://dizzcloud.com/dl/165isj8/607f9.Trance.Music.Mastery..Sound.Design.for.Trance.Module.3..Pad.and.Pluck.Sounds.2013.part4.rar
http://dizzcloud.com/dl/165isjb/607f9.Trance.Music.Mastery..Sound.Design.for.Trance.Module.3..Pad.and.Pluck.Sounds.2013.part6.rar
http://dizzcloud.com/dl/165isjc/607f9.Trance.Music.Mastery..Sound.Design.for.Trance.Module.3..Pad.and.Pluck.Sounds.2013.part3.rar
http://dizzcloud.com/dl/165isje/607f9.Trance.Music.Mastery..Sound.Design.for.Trance.Module.3..Pad.and.Pluck.Sounds.2013.part2.rar
http://dizzcloud.com/dl/165isjg/607f9.Trance.Music.Mastery..Sound.Design.for.Trance.Module.3..Pad.and.Pluck.Sounds.2013.part1.rar


Usefile.com
http://usefile.com/m3rdxqdl5fjf/607f9.Trance.Music.Mastery..Sound.Design.for.Trance.Module.3..Pad.and.Pluck.Sounds.2013.part1.rar.html
http://usefile.com/m52fqqxz32ez/607f9.Trance.Music.Mastery..Sound.Design.for.Trance.Module.3..Pad.and.Pluck.Sounds.2013.part2.rar.html
http://usefile.com/bfltlavyw21j/607f9.Trance.Music.Mastery..Sound.Design.for.Trance.Module.3..Pad.and.Pluck.Sounds.2013.part3.rar.html
http://usefile.com/igf2l63g3rlu/607f9.Trance.Music.Mastery..Sound.Design.for.Trance.Module.3..Pad.and.Pluck.Sounds.2013.part4.rar.html
http://usefile.com/5thv8ubwzw98/607f9.Trance.Music.Mastery..Sound.Design.for.Trance.Module.3..Pad.and.Pluck.Sounds.2013.part5.rar.html
http://usefile.com/rwr7uz7xvhv9/607f9.Trance.Music.Mastery..Sound.Design.for.Trance.Module.3..Pad.and.Pluck.Sounds.2013.part6.rar.html

uploaded


Rapidgator.net
Site BBcode/HTML Code:
Dear visitor, you went to the site as unregistered user.
We recommend you Sign up or Login to website under your name.
Information
Would you like to leave your comment? Please Login to your account to leave comments. Don't have an account? You can create a free account now.