» » Groove3 - R&B Master Series 2 (2013)



Information of news
24-10-2013, 08:42

Groove3 - R&B Master Series 2 (2013)

Category: Tutorials

Groove3 - R&B Master Series 2 (2013)

Groove3 - R&B Master Series 2 (2013)
MP4 | AVC 387kbps | English | 1280x720 | 23.97fps | 3h 42mins | AAC stereo 128kbps | 889 MB
Genre: Video Training

Mega producer Tony Shepperd has worked with superstars like Whitney Houston, Madonna, Quincy Jones, Diana Ross, Lionel Richie, Kenny Loggins, Boyz II Men and many, many more. Sit in on a real-world session where Tony tracks vocals and then mixes a modern R&B song to perfection. Shown in HD video, Tony Shepperd begins by recording the talented singer Shelea Frazier, producing both her lead and background vocals, and then roadmaps how he will proceed to finish her R&B masterpiece production. Tony then focuses on the drum tracks, utilizing EQ and compression, mixing them so they're fat and punchy. The bass is up next, and Tony explains how to tame it and fit it just right into the mix.
Mixing the vocals are next on Tony's list and he demonstrates how to blend them with EQ, compression and reverb so they have that professional polished vibe. Acoustic guitars and keyboards are then explored and Tony explains how to give them that wide stereo sound. The background vocals are then examined and Tony shows how to better fit them and the lead into the mix utilizing automation and more. The strings are then worked on, and Tony demonstrates how to make them larger than life, and finishes the whole mix.
Just when you thought it was over, Tony interviews all the different musicians who played on the track including Alex Teamer (Drum Programming), Reggie Hamilton (Bass), Randy Emata (Keyboards), Michael Nielsen (Guitar) and Raul Ferrando (String Arrangement). All the players share their techniques, theories and insights when working on the track featured in this series.
Regardless of what genre you're working on, the knowledge passed on by studio great Tony Shepperd deserves to be heard. You will take things from it and use them on your productions guaranteed...

Tracking and Mixing
00 Intro
01 Artist Introductiction And Hardware Setup
02 Tracking Background Vocals
03 Vocal Outro Harmonies And Lead Vocals
04 Vox Wrap Up
05 Soundchain and Drums Pt. 1
06 The Drums Pt. 2
07 The Drums Pt. 3
08 Tympani and Bass Guitar
09 The Lead Vocal
10 Lead Vocal Pt. 2 and Acuustic Guitar
11 Acoustic Guitars Pt. 2, Keyboards and Pads
12 The Background Vocals
13 Vocal Automation
14 Strings and Summary

Insights
15 Alex Teamer - Drum Programming
16 Reggie Hamilton - Bass
17 Randy Emata - Keyboards
18 Michael Nielson - Acoustic Guitar
19 Raul Ferrando - String Orchestration
20 Credits
Format : MPEG-4
Format profile : Base Media / Version 2
Codec ID : mp42
File size : 43.6 MiB
Duration : 11mn 41s
Overall bit rate : 521 Kbps
Movie name : Vocal Automation
Part/Position : 1
Part/Total : 1
Track name/Position : 13
Track name/Total : 20
Performer : Tony Shepperd's R&B Master Series II
Genre : Video Training
Encoded date : UTC 2013-10-08 12:38:51
Tagged date : UTC 2013-10-09 03:02:37
Copyright : 2013 Groove 3 Inc.
Cover : Yes
iTunMOVI : / / / / directors / / / name / Tony Shepperd / / / producers / / / name / Groove 3 Inc. / / / /
tvsh : Tony Shepperd's R&B Master Series II
tvnn : www.groove3.com
tvsn : 0
tves : 13
desc : Tony adds automation to the the lead vocal, such as volume rides and delay automation.
ldes : Tony adds automation to the the lead vocal, such as volume rides and delay automation.
hdvd : 0
stik : 10
cnID : 0
Video #1
ID : 1
Format : AVC
Format/Info : Advanced Video Codec
Format profile : [email protected]
Format settings, CABAC : Yes
Format settings, ReFrames : 4 frames
Codec ID : avc1
Codec ID/Info : Advanced Video Coding
Duration : 11mn 41s
Bit rate mode : Variable
Bit rate : 387 Kbps
Width : 1 280 pixels
Height : 720 pixels
Display aspect ratio : 16:9
Frame rate mode : Variable
Frame rate : 23.976 fps
Minimum frame rate : 23.974 fps
Maximum frame rate : 23.981 fps
Resolution : 24 bits
Colorimetry : 4:2:0
Scan type : Progressive
Bits/(Pixel*Frame) : 0.018
Stream size : 32.4 MiB (74%)
Writing library : x264 core 120
Encoding settings : cabac=1 / ref=2 / deblock=1:0:0 / analyse=0x1:0x111 / me=hex / subme=6 / psy=1 / psy_rd=1.00:0.00 / mixed_ref=0 / me_range=16 / chroma_me=1 / trellis=0 / 8x8dct=0 / cqm=0 / deadzone=21,11 / fast_pskip=1 / chroma_qp_offset=-2 / threads=12 / sliced_threads=0 / nr=0 / decimate=1 / interlaced=0 / bluray_compat=0 / constrained_intra=0 / bframes=2 / b_pyramid=2 / b_adapt=1 / b_bias=0 / direct=1 / weightb=0 / open_gop=0 / weightp=2 / keyint=240 / keyint_min=24 / scenecut=40 / intra_refresh=0 / rc_lookahead=40 / rc=2pass / mbtree=1 / bitrate=387 / ratetol=1.0 / qcomp=0.60 / qpmin=3 / qpmax=69 / qpstep=4 / cplxblur=20.0 / qblur=0.5 / ip_ratio=1.40 / aq=1:1.00
Encoded date : UTC 2013-10-08 12:38:51
Tagged date : UTC 2013-10-08 12:41:00
colour_primaries : BT.709-5, BT.1361, IEC 61966-2-4, SMPTE RP177
transfer_characteristics : BT.709-5, BT.1361
matrix_coefficients : BT.709-5, BT.1361, IEC 61966-2-4 709, SMPTE RP177
Audio #2
ID : 2
Format : AAC
Format/Info : Advanced Audio Codec
Format version : Version 4
Format profile : LC
Format settings, SBR : No
Codec ID : 40
Duration : 11mn 41s
Bit rate mode : Variable
Bit rate : 128 Kbps
Maximum bit rate : 184 Kbps
Channel(s) : 2 channels
Channel positions : L R
Sampling rate : 44.1 KHz
Resolution : 16 bits
Stream size : 10.7 MiB (25%)
Language : English
Encoded date : UTC 2013-10-08 12:38:51
Tagged date : UTC 2013-10-08 12:41:00
Text #4
ID : 4
Format : Apple text
Codec ID : text
Duration : 11mn 41s
Stream size : 23.0 Bytes (0%)
Encoded date : UTC 2013-10-09 03:02:37
Tagged date : UTC 2013-10-09 03:02:37

Groove3 - R&B Master Series 2 (2013)
Groove3 - R&B Master Series 2 (2013)
Groove3 - R&B Master Series 2 (2013)
Groove3 - R&B Master Series 2 (2013)





uploaded


Rapidgator.net
Site BBcode/HTML Code:

Tags to an Article: Groove3, Master, Series, 2013

Dear visitor, you went to the site as unregistered user.
We recommend you Sign up or Login to website under your name.
Information
Would you like to leave your comment? Please Login to your account to leave comments. Don't have an account? You can create a free account now.