» » The ill.Methodology - Workshop Video (2013)



Information of news
24-10-2013, 08:42

The ill.Methodology - Workshop Video (2013)

Category: Tutorials

The ill.Methodology - Workshop Video (2013)

The ill.Methodology - Workshop Video (2013)
MP4 | AVC 252kbps | English | 640x400 | 30fps | 3h 41mins | AAC stereo 110kbps | 843 MB
Genre: Video Training

It's finally here... the master class from ill.Gates. In this 4-hour series of video tutorials - shot in front of a live audience - ill.Gates not only teaches mind-blowing Ableton secrets, but reveals the blueprint for becoming a successful producer. Thousands have travelled the world to attend this essential workshop, and now for the first time, it's available to stream 24/7.
Chapters:
Introduction
Lesson 1 - Structural Aesthetics
Lesson 2 - Preparing Your Library
Lesson 3 - Theory of Workflow
Lesson 4 - Workflow in Practice
Lesson 5 - Your Music Business
Lesson 6 - Homework
Format : MPEG-4
Format profile : Base Media / Version 2
Codec ID : mp42
File size : 114 MiB
Duration : 43mn 36s
Overall bit rate : 366 Kbps
Encoded date : UTC 2013-09-14 19:40:52
Tagged date : UTC 2013-09-14 19:40:52
Video #1
ID : 1
Format : AVC
Format/Info : Advanced Video Codec
Codec ID : avc1
Codec ID/Info : Advanced Video Coding
Duration : 43mn 36s
Bit rate mode : Variable
Bit rate : 252 Kbps
Width : 640 pixels
Height : 400 pixels
Display aspect ratio : 1.600
Frame rate mode : Constant
Frame rate : 30.000 fps
Bits/(Pixel*Frame) : 0.033
Stream size : 78.6 MiB (69%)
Encoded date : UTC 2013-09-14 19:40:52
Tagged date : UTC 2013-09-14 19:40:52
Audio #2
ID : 2
Format : AAC
Format/Info : Advanced Audio Codec
Format version : Version 4
Format profile : LC
Format settings, SBR : No
Codec ID : 40
Duration : 43mn 36s
Bit rate mode : Variable
Bit rate : 110 Kbps
Channel(s) : 2 channels
Channel positions : L R
Sampling rate : 44.1 KHz
Resolution : 16 bits
Stream size : 34.2 MiB (30%)
Encoded date : UTC 2013-09-14 19:40:52
Tagged date : UTC 2013-09-14 19:40:52

The ill.Methodology - Workshop Video (2013)
The ill.Methodology - Workshop Video (2013)
The ill.Methodology - Workshop Video (2013)
The ill.Methodology - Workshop Video (2013)





uploaded


Rapidgator.net
Site BBcode/HTML Code:

Tags to an Article: The, ill, Methodology, Workshop, Video

Dear visitor, you went to the site as unregistered user.
We recommend you Sign up or Login to website under your name.
Information
Would you like to leave your comment? Please Login to your account to leave comments. Don't have an account? You can create a free account now.