» » Pluralsight - Mastering Visual Studio (2013)



Information of news
24-10-2013, 08:42

Pluralsight - Mastering Visual Studio (2013)

Category: Tutorials

Pluralsight - Mastering Visual Studio (2013)

Pluralsight - Mastering Visual Studio (2013)
WMV | WMV3 109kbps | English | 1024x768 | 15fps | 2h 50mins | WMA2 stereo 128kbps | 310 MB
Genre: Video Training

This course covers the newest features of Visual Studio including new IDE features, code editor improvements, XAML coding enhancements, updated debugging features, and the awesome new CodeLens. Master the new tools and features of Visual Studio 2013. This course covers the newest features of Visual Studio including new IDE features, code editor improvements, XAML coding enhancements, updated debugging features, and the awesome new CodeLens.
mastering-visual-studio-2013.zip

01. Introduction
│ 01. Introduction.wmv
│ 02. Launch Experience.wmv

02. Mastering Visual Studio 2013
│ 01. Introduction.wmv
│ 02. Look and Feel.wmv
│ 03. Feedback Options.wmv
│ 04. Notification Center.wmv
│ 05. You.wmv
│ 06. Who Moved My Cheese.wmv
│ 07. Options Dialog.wmv
│ 08. Summary.wmv

03. Code Editor
│ 01. Introduction.wmv
│ 02. Peek Definition.wmv
│ 03. Enhanced Scroll Bar.wmv
│ 04. Navigate To Improvements.wmv
│ 05. Moving Lines.wmv
│ 06. Automatic Brace Completion.wmv
│ 07. Summary.wmv

04. XAML Editing
│ 01. Introduction.wmv
│ 02. Sample Application.wmv
│ 03. Intellisense for Resources.wmv
│ 04. Intellisense for Binding Expressions.wmv
│ 05. Go To Definition.wmv
│ 06. Start End Tag Refactoring.wmv
│ 07. Better Commenting Support.wmv
│ 08. Code Snippets.wmv
│ 09. Summary.wmv

05. Debugging
│ 01. Introduction.wmv
│ 02. Function Return Value Inspection.wmv
│ 03. Edit and Continue Enhancements.wmv
│ 04. Performance and Diagnostics Hub.wmv
│ 05. Summary.wmv

06. CodeLens
│ 01. Introduction.wmv
│ 02. References Indicator.wmv
│ 03. Tested By Indicator.wmv
│ 04. Test Status Indicator.wmv
│ 05. TFS Indicators.wmv
│ 06. Configuring CodeLens.wmv
│ 07. Summary.wmv

07. Last Words
01. Last Words.wmv
Format : Windows Media
File size : 22.1 MiB
Duration : 11mn 47s
Overall bit rate mode : Variable
Overall bit rate : 262 Kbps
Maximum Overall bit rate : 584 Kbps
Encoded date : UTC 2013-10-07 14:57:13.539
Video #2
ID : 2
Format : VC-1
Format profile : [email protected]
Codec ID : WMV3
Codec ID/Info : Windows Media Video 9
Codec ID/Hint : WMV3
Description of the codec : Windows Media Video 9
Duration : 11mn 47s
Bit rate mode : Variable
Bit rate : 109 Kbps
Width : 1 024 pixels
Height : 768 pixels
Display aspect ratio : 4:3
Frame rate : 15.000 fps
Resolution : 24 bits
Scan type : Progressive
Bits/(Pixel*Frame) : 0.009
Stream size : 9.23 MiB (42%)
Language : English (US)
Audio #1
ID : 1
Format : WMA2
Format profile : L1
Codec ID : 161
Codec ID/Info : Windows Media Audio 2
Description of the codec : Windows Media Audio 9.2 - 128 kbps, 44 kHz, stereo (A/V) 1-pass CBR
Duration : 11mn 47s
Bit rate mode : Constant
Bit rate : 128 Kbps
Channel(s) : 2 channels
Sampling rate : 44.1 KHz
Resolution : 16 bits
Stream size : 10.8 MiB (49%)
Language : English (US)

Pluralsight - Mastering Visual Studio (2013)
Pluralsight - Mastering Visual Studio (2013)
Pluralsight - Mastering Visual Studio (2013)





uploaded


Rapidgator.net
Site BBcode/HTML Code:

Tags to an Article: Pluralsight, Mastering, Visual, Studio, 2013

Dear visitor, you went to the site as unregistered user.
We recommend you Sign up or Login to website under your name.
Information
Would you like to leave your comment? Please Login to your account to leave comments. Don't have an account? You can create a free account now.