» » » Infinite Skills - Learning jQuery Training Video



Information of news
23-10-2013, 19:05

Infinite Skills - Learning jQuery Training Video

Category: Tutorials » Other

Infinite Skills - Learning jQuery Training Video

Infinite Skills - Learning jQuery Training Video
English | MP4 | 960x720 | AVC 113 Kbps 15.000 fps | AAC 128 Kbps 44.1 khz | 4.5 hours | 666 MB
Genre: Video Training

"In this Query programming Training Video, expert developer, author and all around web training guru Craig Buckler introduces you to the world of AJAX programming with the popular javascript library - jQuery. Part of the Web 2.0 revolution - jQuery makes rich web interactions easier to program by providing a toolbox of functions that you can use to spruce up your website!"
Starting by first introducing you to jQuery, the teaching style Craig uses to convey this sometimes complex topic makes it easy to learn. The examples he uses are easy to understand, and the lessons build on one another throughout the training course. You will begin by learning the essentials of working with CSS selections, and quickly move on to creating animations - slides, easing, fading, and more. The training escalates with DOM manipulation, event handling, and AJAX interactions. You will even learn how to create your own jQuery plugins. The training course concludes with you working alongside Craig to create real-world usable tab controls, and a browser game written with jQuery!
Anyone, regardless of your level of experience, can follow this easy-to-learn training tutorial, and quickly pick up the essentials you need to add jQuery to your web development portfolio. By the conclusion of this video training, you will be fully capable of creating rich-web interactions on your personal, or clients websites. Extensive working files are included so you can follow along with the author.

01. Getting Started
02. Introduction To jQuery
03. Selectors
04. Animation
05. Manipulating The Page
06. Event Handling
07. jQuery Utility Functions
08. AJAX
09. jQuery Plugins
10. Real World jQuery Examples
11. Further Resources
12. About The Author"
General
Complete name : Learning jQuery Programming\0101_2.mp4
Format : MPEG-4
Format profile : Base Media / Version 2
Codec ID : mp42
File size : 7.58 MiB
Duration : 4mn 20s
Overall bit rate mode : Variable
Overall bit rate : 245 Kbps
Encoded date : UTC 2011-11-02 22:50:27
Tagged date : UTC 2011-11-02 22:59:22
Writing application : Sorenson Squeeze 5.0

Video
ID : 2
Format : AVC
Format/Info : Advanced Video Codec
Format profile : [email protected]
Format settings, CABAC : No
Format settings, ReFrames : 2 frames
Codec ID : avc1
Codec ID/Info : Advanced Video Coding
Duration : 4mn 20s
Bit rate mode : Variable
Bit rate : 113 Kbps
Width : 960 pixels
Height : 720 pixels
Display aspect ratio : 4:3
Frame rate mode : Constant
Frame rate : 15.000 fps
Color space : YUV
Chroma subsampling : 4:2:0
Bit depth : 8 bits
Scan type : Progressive
Bits/(Pixel*Frame) : 0.011
Stream size : 3.50 MiB (46%)
Encoded date : UTC 2011-11-02 22:50:27
Tagged date : UTC 2011-11-02 22:50:27
Color primaries : BT.709-5, BT.1361, IEC 61966-2-4, SMPTE RP177
Transfer characteristics : BT.709-5, BT.1361
Matrix coefficients : BT.709-5, BT.1361, IEC 61966-2-4 709, SMPTE RP177

Audio
ID : 1
Format : AAC
Format/Info : Advanced Audio Codec
Format profile : LC
Codec ID : 40
Duration : 4mn 19s
Bit rate mode : Variable
Bit rate : 128 Kbps
Channel(s) : 1 channel
Channel positions : Front: C
Sampling rate : 44.1 KHz
Compression mode : Lossy
Stream size : 3.97 MiB (52%)
Encoded date : UTC 2011-11-02 22:50:27
Tagged date : UTC 2011-11-02 22:50:27
Screenshots
Infinite Skills - Learning jQuery Training Video
Infinite Skills - Learning jQuery Training Video
Infinite Skills - Learning jQuery Training Video






uploaded


Rapidgator.net
Site BBcode/HTML Code:

Tags to an Article: Infinite, Skills, Learning, jQuery, Training

Dear visitor, you went to the site as unregistered user.
We recommend you Sign up or Login to website under your name.
Information
Would you like to leave your comment? Please Login to your account to leave comments. Don't have an account? You can create a free account now.