» » » Black & Decker: The Complete Guide to Wiring 4th Edition (DVD + PDF BOOK) (Repost)



Information of news
23-10-2013, 19:03

Black & Decker: The Complete Guide to Wiring 4th Edition (DVD + PDF BOOK) (Repost)

Category: Tutorials » Other

Black & Decker: The Complete Guide to Wiring 4th Edition (DVD + PDF BOOK) (Repost)

Black & Decker: The Complete Guide to Wiring 4th Edition (DVD + PDF BOOK) (Repost)
English | M4V | 720x480 | AVC 2262 Kbps 29.970 fps | AAC 165 Kbps 48.0 khz | 352 Pages Book | 1.52 GB
Genre: Video Training

"In previous editions, The Complete Guide to Home Wiring sold more than one million copies, making it the all-time bestselling book on home wiring for consumers. In this newly revised and redesigned edition, the book includes everything that made the original the favorite of American homeowners, but also adds new projects, such as wiring a shed or gazebo, and includes important revisions to meet the 2008 National Electrical Code."
The modern home can include dozens of electronic components unknown just a few years ago, and this book provides essential information on wiring for those devices. It includes information on security systems, home theaters and surround-sound systems, computer networks, and a host of kitchen amenities like espresso machines to grind-and-brew coffee machines. Tech savvy homeowners will appreciate the section devoted to Bluetooth and wi-fi technologies-the next wave of "wireless wiring". Once again, this book features more than 700 color photographs showing installation and repair projects with unsurpassed realism and clarity."
Complete name : BD_WIRE_DUPE_MASTER_2_2.m4v
Format : MPEG-4
Format profile : Base Media / Version 2
Codec ID : mp42
File size : 55.0 MiB
Duration : 2mn 53s
Overall bit rate mode : Variable
Overall bit rate : 2 654 Kbps
Encoded date : UTC 2011-03-07 04:46:37
Tagged date : UTC 2011-03-07 04:49:25
Writing application : HandBrake 0.9.5 2011010300

Video
ID : 1
Format : AVC
Format/Info : Advanced Video Codec
Format profile : [email protected]
Format settings, CABAC : No
Format settings, ReFrames : 2 frames
Codec ID : avc1
Codec ID/Info : Advanced Video Coding
Duration : 2mn 53s
Bit rate mode : Variable
Bit rate : 2 262 Kbps
Width : 720 pixels
Height : 480 pixels
Display aspect ratio : 16:9
Original display aspect ratio : 16:9
Frame rate mode : Constant
Frame rate : 29.970 fps
Standard : NTSC
Color space : YUV
Chroma subsampling : 4:2:0
Bit depth : 8 bits
Scan type : Progressive
Bits/(Pixel*Frame) : 0.218
Stream size : 46.9 MiB (85%)
Writing library : x264 core 112
Encoding settings : cabac=0 / ref=2 / deblock=1:0:0 / analyse=0x1:0x111 / me=umh / subme=6 / psy=1 / psy_rd=1.00:0.00 / mixed_ref=1 / me_range=16 / chroma_me=1 / trellis=0 / 8x8dct=0 / cqm=0 / deadzone=21,11 / fast_pskip=1 / chroma_qp_offset=-2 / threads=3 / sliced_threads=0 / nr=0 / decimate=1 / interlaced=0 / constrained_intra=0 / bframes=0 / weightp=0 / keyint=300 / keyint_min=29 / scenecut=40 / intra_refresh=0 / rc_lookahead=40 / rc=crf / mbtree=1 / crf=20.0 / qcomp=0.60 / qpmin=3 / qpmax=51 / qpstep=4 / ip_ratio=1.40 / aq=1:1.00
Encoded date : UTC 2011-03-07 04:46:37
Tagged date : UTC 2011-03-07 04:49:25
Color primaries : BT.601-6 525, BT.1358 525, BT.1700 NTSC, SMPTE 170M
Transfer characteristics : BT.709-5, BT.1361
Matrix coefficients : BT.601-6 525, BT.1358 525, BT.1700 NTSC, SMPTE 170M

Audio #1
ID : 2
Format : AAC
Format/Info : Advanced Audio Codec
Format profile : LC
Codec ID : 40
Duration : 2mn 53s
Bit rate mode : Variable
Bit rate : 165 Kbps
Maximum bit rate : 202 Kbps
Channel(s) : 2 channels
Channel positions : Front: L R
Sampling rate : 48.0 KHz
Compression mode : Lossy
Stream size : 3.41 MiB (6%)
Encoded date : UTC 2011-03-07 04:46:37
Tagged date : UTC 2011-03-07 04:49:25

Audio #2
ID : 3
Format : AC-3
Format/Info : Audio Coding 3
Mode extension : CM (complete main)
Format settings, Endianness : Big
Codec ID : ac-3
Duration : 2mn 53s
Bit rate mode : Constant
Bit rate : 224 Kbps
Channel(s) : 2 channels
Channel positions : Front: L R
Sampling rate : 48.0 KHz
Bit depth : 16 bits
Compression mode : Lossy
Stream size : 4.64 MiB (8%)
Encoded date : UTC 2011-03-07 04:46:37
Tagged date : UTC 2011-03-07 04:49:25
Screenshots
Black & Decker: The Complete Guide to Wiring 4th Edition (DVD + PDF BOOK) (Repost)
Black & Decker: The Complete Guide to Wiring 4th Edition (DVD + PDF BOOK) (Repost)
Black & Decker: The Complete Guide to Wiring 4th Edition (DVD + PDF BOOK) (Repost)
Black & Decker: The Complete Guide to Wiring 4th Edition (DVD + PDF BOOK) (Repost)
Black & Decker: The Complete Guide to Wiring 4th Edition (DVD + PDF BOOK) (Repost)



RyuShare:
http://ryushare.com/ehkfy963oskm/gr9vb.Black..Decker.The.Complete.Guide.to.Wiring.4th.Edition.DVD..PDF.BOOK.Repost.part1.rar
http://ryushare.com/i3na4lpjfsay/gr9vb.Black..Decker.The.Complete.Guide.to.Wiring.4th.Edition.DVD..PDF.BOOK.Repost.part2.rar
http://ryushare.com/xy30h17zyeyi/gr9vb.Black..Decker.The.Complete.Guide.to.Wiring.4th.Edition.DVD..PDF.BOOK.Repost.part3.rar
http://ryushare.com/aau5lkia5t5w/gr9vb.Black..Decker.The.Complete.Guide.to.Wiring.4th.Edition.DVD..PDF.BOOK.Repost.part4.rar
http://ryushare.com/cnr6qx7f2thh/gr9vb.Black..Decker.The.Complete.Guide.to.Wiring.4th.Edition.DVD..PDF.BOOK.Repost.part5.rar
http://ryushare.com/6oqpsp5n4it2/gr9vb.Black..Decker.The.Complete.Guide.to.Wiring.4th.Edition.DVD..PDF.BOOK.Repost.part6.rar

Uploaded:
http://uploaded.net/file/znep1sso/gr9vb.Black..Decker.The.Complete.Guide.to.Wiring.4th.Edition.DVD..PDF.BOOK.Repost.part1.rar
http://uploaded.net/file/12d396wx/gr9vb.Black..Decker.The.Complete.Guide.to.Wiring.4th.Edition.DVD..PDF.BOOK.Repost.part2.rar
http://uploaded.net/file/8gp0id87/gr9vb.Black..Decker.The.Complete.Guide.to.Wiring.4th.Edition.DVD..PDF.BOOK.Repost.part3.rar
http://uploaded.net/file/94ojnw0x/gr9vb.Black..Decker.The.Complete.Guide.to.Wiring.4th.Edition.DVD..PDF.BOOK.Repost.part4.rar
http://uploaded.net/file/s19izqje/gr9vb.Black..Decker.The.Complete.Guide.to.Wiring.4th.Edition.DVD..PDF.BOOK.Repost.part5.rar
http://uploaded.net/file/31u434ic/gr9vb.Black..Decker.The.Complete.Guide.to.Wiring.4th.Edition.DVD..PDF.BOOK.Repost.part6.rar

Extabit:
http://extabit.com/file/28clzx7e0meop/gr9vb.Black..Decker.The.Complete.Guide.to.Wiring.4th.Edition.DVD..PDF.BOOK.Repost.part1.rar
http://extabit.com/file/28clzx7e0mkwp/gr9vb.Black..Decker.The.Complete.Guide.to.Wiring.4th.Edition.DVD..PDF.BOOK.Repost.part2.rar
http://extabit.com/file/29g3s9gsywpce/gr9vb.Black..Decker.The.Complete.Guide.to.Wiring.4th.Edition.DVD..PDF.BOOK.Repost.part3.rar
http://extabit.com/file/29g3s9gsywfwe/gr9vb.Black..Decker.The.Complete.Guide.to.Wiring.4th.Edition.DVD..PDF.BOOK.Repost.part4.rar
http://extabit.com/file/29g3s9gsywfxq/gr9vb.Black..Decker.The.Complete.Guide.to.Wiring.4th.Edition.DVD..PDF.BOOK.Repost.part5.rar
http://extabit.com/file/28clzx7e0mrbd/gr9vb.Black..Decker.The.Complete.Guide.to.Wiring.4th.Edition.DVD..PDF.BOOK.Repost.part6.rar


uploaded


Rapidgator.net
Site BBcode/HTML Code:

Tags to an Article: Black, Decker, The, Complete, Guide

Dear visitor, you went to the site as unregistered user.
We recommend you Sign up or Login to website under your name.
Information
Would you like to leave your comment? Please Login to your account to leave comments. Don't have an account? You can create a free account now.