» » » Interior Scene Cinema 4D Tutorial



Information of news
  • Author: davida
  • Date: 13-09-2013, 14:08
13-09-2013, 14:08

Interior Scene Cinema 4D Tutorial

Category: Tutorials » 3D

http://i60.fastpic.ru/big/2013/0913/56/f4bb98888035e04bf343a924d4803c56.jpg

Interior Scene Cinema 4D Tutorial
English | Audio: aac, 44100 Hz, stereo (und)
MP4 | Video: h264, yuv420p, 1280x664, 30.00 fps(r) (und) | 959.63 MB
Genre: Video Training

Modeling, materials & Rendering from scratch a full shot of Interior Scene in Cinema 4D We will learn together how to model an Nike Table brand, vase, Floor Lamp, Picture Frame & Fabric Modern Chair and then get textures & Rendering!
Hours Tutorial in HD Video attached with the Material and Project Scene, you can just make your final workshop render and share it at the CINEMA 4D

MediaInfo:
General
Complete name : Interior Scene Tutorial Cinema 4D.mp4
Format : MPEG-4
Format profile : Base Media / Version 2
Codec ID : mp42
File size : 957 MiB
Duration : 2h 2mn
Overall bit rate mode : Variable
Overall bit rate : 1 090 Kbps
Encoded date : UTC 2013-08-24 13:38:43
Tagged date : UTC 2013-08-24 13:38:43
gsst : 0
gstd : 7363046
gssd : B4A7DDAE5MH1378977966164955
gshh : r5---sn-4g57kuer.c.youtube.com
Video #1
ID : 1
Format : AVC
Format/Info : Advanced Video Codec
Format profile : [email protected]
Format settings, CABAC : Yes
Format settings, ReFrames : 1 frame
Format settings, GOP : M=1, N=60
Codec ID : avc1
Codec ID/Info : Advanced Video Coding
Duration : 2h 2mn
Bit rate : 895 Kbps
Maximum bit rate : 5 677 Kbps
Width : 1 280 pixels
Height : 664 pixels
Display aspect ratio : 1.928
Frame rate mode : Constant
Frame rate : 30.000 fps
Color space : YUV
Chroma subsampling : 4:2:0
Bit depth : 8 bits
Scan type : Progressive
Bits/(Pixel*Frame) : 0.035
Stream size : 786 MiB (82%)
Tagged date : UTC 2013-08-24 13:44:47
Audio #2
ID : 2
Format : AAC
Format/Info : Advanced Audio Codec
Format profile : LC
Codec ID : 40
Duration : 2h 2mn
Bit rate mode : Variable
Bit rate : 192 Kbps
Maximum bit rate : 202 Kbps
Channel(s) : 2 channels
Channel positions : Front: L R
Sampling rate : 44.1 KHz
Compression mode : Lossy
Stream size : 169 MiB (18%)
Title : IsoMedia File Produced by Google, 5-11-2011
Encoded date : UTC 2013-08-24 13:41:53
Tagged date : UTC 2013-08-24 13:44:47

http://i58.fastpic.ru/big/2013/0913/01/b613bbeb5f8a5e4b3383e56b1a3e4801.jpg



uploaded


Rapidgator.net
Site BBcode/HTML Code:

Tags to an Article: Interior, Scene, Cinema, Tutorial

Dear visitor, you went to the site as unregistered user.
We recommend you Sign up or Login to website under your name.
Information
Would you like to leave your comment? Please Login to your account to leave comments. Don't have an account? You can create a free account now.