» » Java Brains Servlets and JSPs



Information of news
  • Author: kityvn
  • Date: 5-09-2013, 14:41
5-09-2013, 14:41

Java Brains Servlets and JSPs

Category: Tutorials

Java Brains Servlets and JSPs
Java Brains Servlets and JSPs
English | FLV | 640 x 360 | AVC ~222 Kbps | 25 fps
AAC | 122 kbps | 44.1 KHz | 2 channels | 5h 15m | 750 MB



These tutorials cover the basics of Servlets in Java Web Applications. and then move on to advanced servlet concepts and JSPs. The prerequisite for this course is basic Java programming knowledge.



Java Brains Servlets & JSPs

Content:
Setting up (09:50)
First Servlet Part 1 (13:54)
First Servlet Part 2 (11:25)
Understanding the Servlet (11:24)
Servlet XML Configuration (13:09)
-The POST Method and Passing Parameters (13:23)
Passing More Parameters (14:55)
Understanding GET and POST (14:47)
Request, Session and Context 01 (11:41)
Request, Session and Context 02 (14:59)
Understanding init, service and ServletConfig 01 (13:10)
Understanding init, service and ServletConfig 02 (13:50)
Understanding init, service and ServletConfig 03 (07:00)
Hello JSP (14:41)
Understanding the JSP (14:41)
JSP Page Directives (11:57)
Scopes in JSP and the PageContext object (14:59)
Using jspInit and InitParams (14:58)
Understanding the MVC Pattern (10:32)
Part 1 - Writing an MVC Application (14:34)
Part 2 - Writing an MVC Application (11:34)
Part 3 - Using Model object in the MVC Application (13:20)
Part 4 - Using RequestDispatcher in the MVC Application (14:35)
Introduction to JSTL and the useBean tag (14:58)
Request Parameters with the setProperty tag (14:58)

MediaInfo
General
Complete name : 01 - Setting up.flv
Format : Flash Video
File size : 24.8 MiB
Duration : 9mn 50s
Overall bit rate : 352 Kbps
httphostheader : o-o.preferred.mil01s10.v13.nonxt2.c.youtube.com
Video
Format : AVC
Format/Info : Advanced Video Codec
Format profile : [email protected]
Format settings, CABAC : Yes
Format settings, ReFrames : 3 frames
Format settings, GOP : M=1, N=25
Codec ID : 7
Duration : 9mn 50s
Bit rate : 222 Kbps
Width : 640 pixels
Height : 360 pixels
Display aspect ratio : 16:9
Frame rate mode : Constant
Frame rate : 25.000 fps
Color space : YUV
Chroma subsampling : 4:2:0
Bit depth : 8 bits
Scan type : Progressive
Bits/(Pixel*Frame) : 0.039
Stream size : 15.6 MiB (63%)
Audio
Format : AAC
Format/Info : Advanced Audio Codec
Format profile : LC
Codec ID : 10
Duration : 9mn 50s
Bit rate : 122 Kbps
Channel(s) : 2 channels
Channel positions : Front: L R
Sampling rate : 44.1 KHz
Compression mode : Lossy
Stream size : 8.55 MiB (35%)


I recommends Buy premimum account for High speed+parallel downloads!

rapidgator




extabit


uploaded

uploaded


Rapidgator.net
Site BBcode/HTML Code:
Dear visitor, you went to the site as unregistered user.
We recommend you Sign up or Login to website under your name.
Information
Would you like to leave your comment? Please Login to your account to leave comments. Don't have an account? You can create a free account now.